Tvoj účet nieje VIP.
Preto sú tvoje funkcie a možnosti značne obmedzené.
Pre aktiváciu VIP klikni sem.

Psycho-Pass - 2. serie (2014)(JP/EN+CZtit.)[1080p][HEVC] = CSFD 84% | SkTorrent.eu

Cz-SkTorrent open Tracker, na volné zdielanie súborov. Pridajte sa k nasej komunite a získajte pristup k tisícom torrentov.

  • vysoká rýchlost
  • úplne zdarma
  • prevazne Slovenska a Ceska scena
  • ste tu s nami uz 5 rokov - Dakujeme
  • Vitaj Guest (Login) Ako stahovat
    torrenty?
    Torrenty:
    v1 textová
    v2 obrázková
    v3 online filmy
    Ako sa stat
    Uploaderom
    Online
    Filmy
    Forum
    Pravidlá
    BitTorrent
    klient
    Meno: Heslo:
    Zaregistrovat
    Po zaregistrovaní mozte volne stahovat
    Zabudol som heslo

    Torrent's details
    Psycho-Pass - 2. serie (2014)(JP/EN+CZtit.)[1080p][HEVC] = CSFD 84% Názov:Psycho-Pass - 2. serie (2014)(JP/EN+CZtit.)[1080p][HEVC] = CSFD 84% Hodnocení:N/A Stiahnut
    Pozriet Online
    Kategória:Seriál Velikost:3.3 GB BitTorrent klient
    Pridaný: Súbory:
    Skontrolován:2021-08-01 Peerov:9 (Seed: 9, Leech: 0)
    Zaner:Akcni,Animovany,Krimi,Psychologicky Uploader:Uvidis, az ked budes
    VIP
    Kúp nám Pivo 1,10€

    Kúp nám Pivo
    Podporte nas na Facebooku !
    Pridaj do zalozky
    Pridaj do zalozky




    Psycho-Pass - 2. serie (2014) = CSFD 84%



           

    Jazyk: japonský, anglický
    Titulky: české, anglické
    Zdroj CZ tituliek: hns.sk - Maccinn
    Žáner: Animovaný / Akční / Krimi / Psychologický / Sci-Fi / Thriller
    Témy: Anime, Akční, Dystopie, Sci-fi, Seinen, Speciální jednotky, Tragédie, Zákon a pořádek
    Japonsko, 2014, 11x23 min

    Režie: Kacujuki Motohiro, Sajo Jamamoto, Jukio Nišimoto,...
    Scénář: Gen Urobuči, Džun Kumagai, Makoto Fukami
    Kamera: Eiji Arai
    Hudba: Júgo Kanno
    Japonský dabing: Kana Hanazawa, Ryouhei Kimura, Ayane Sakura, Keiji Fujiwara, Tomokazu Seki, Kenji Nojima, Miyuki Sawashiro, Shizuka Itō, Kazuhiro Yamaji, Noriko Hidaka,...
    Anglický dabing: Kate Oxley, Clifford Chapin, Cherami Leigh, Christopher Sabat, Robert McCollum, Josh Grelle, Lydia Mackay, Lindsay Seidel, Stephanie Young,...

    Predtím, než začnete, pozrite si:
    1. Psycho-Pass - 1. serie (2012)

    Popis
    Potom, čo sa Tsunemori Akane dozvedela o pravej povahe systému SYBIL rozhodola sa, že počúvne systém, bude veriť ľudskosti a právnemu poriadku. Je súčasťou nového policajného úseku a trávy svoj každodenný život obklopená zločincami. Objaví sa „monštrum“, pre Akane neznáme, ktoré otrasie systémom až do jeho základov a bude chcieť pred neho predstúpiť.





       

    Hlavní
    Formát: Matroska
    Format version: Version 4
    Velikost souboru: 203 MiB
    Duration: 22 min 22 s
    Celkový BitRate: 1 267 kb/s
    Název filmu: [SCY] Psycho-Pass 2 - 01 (BD 1080p Hi10 FLAC)
    Encoded date: UTC 2019-10-15 20:36:31
    Použitý software: mkvmerge v38.0.0 ('The Silent Type') 64-bit
    Enkódoval: libebml v1.3.9 + libmatroska v1.5.2 / Lavf58.20.100

    Video
    Formát: HEVC
    Formát/Info: High Efficiency Video Coding
    Format profile: Main 10@L4@Main
    Codec ID: V_MPEGH/ISO/HEVC
    Duration: 22 min 22 s
    Bit rate: 1 070 kb/s
    Šířka: 1 920pixely
    Výška: 1 080pixely
    Poměr stran: 16:9
    Frame rate mode: Constant
    Frame rate: 23,976 (24000/1001) FPS
    Color space: YUV
    Chroma subsampling: 4:2:0
    Bit depth: 10 bits
    Bits/(Pixel*Frame): 0.022
    Stream size: 171 MiB (84%)
    Titul: [Judas] x265 10b
    Enkódoval: x265 2.9:[Windows][GCC 8.2.0][64 bit] 10bit
    Default: Ano
    Forced: Ne
    Color range: Limited
    Color primaries: BT.709
    Transfer characteristics: BT.709
    Matrix coefficients: BT.709

    Audio #1
    Formát: Opus
    Codec ID: A_OPUS
    Duration: 22 min 22 s
    Bit rate: 92,3 kb/s
    Kanál(y): 2 kanály
    Channel layout: L R
    Sampling rate: 48,0 kHz
    Frame rate: 50,000 FPS (960 SPF)
    Compression mode: Lossy
    Video delay: -7 ms
    Stream size: 14,8 MiB (7%)
    Titul: [Judas] Stereo (Opus)
    Jazyk: Japanese
    Default: Ano
    Forced: Ne

    Audio #2
    Formát: Opus
    Codec ID: A_OPUS
    Duration: 22 min 22 s
    Bit rate: 93,6 kb/s
    Kanál(y): 2 kanály
    Channel layout: L R
    Sampling rate: 48,0 kHz
    Frame rate: 50,000 FPS (960 SPF)
    Compression mode: Lossy
    Video delay: -7 ms
    Stream size: 15,0 MiB (7%)
    Titul: [Judas] Stereo (Opus)
    Jazyk: English
    Default: Ne
    Forced: Ne

    Text #1
    Formát: ASS
    Codec ID: S_TEXT/ASS
    Codec ID/Info: Advanced Sub Station Alpha
    Duration: 22 min 2 s
    Bit rate: 670 b/s
    Count of elements: 679
    Compression mode: Lossless
    Stream size: 108 KiB (0%)
    Titul: English [Signs-Songs]
    Jazyk: English
    Default: Ne
    Forced: Ne

    Text #2
    Formát: ASS
    Codec ID: S_TEXT/ASS
    Codec ID/Info: Advanced Sub Station Alpha
    Duration: 22 min 18 s
    Bit rate: 762 b/s
    Count of elements: 943
    Compression mode: Lossless
    Stream size: 125 KiB (0%)
    Titul: English [Full]
    Jazyk: English
    Default: Ne
    Forced: Ne


    Pre lepšie vyhľadávanie anime na webe SKT si nastavte vo vyhľadávaní kategóriu Animovany.









    K28ttt46, Jablonka, pohee, rst_1234,

    + Pridaj vlastnu verziu tohto torrentu +


    Upozornenie:
    Ziadny zo zobrazených súborov sa nenachádza na tomto serveri. Server slúzi len k síreniu vlastnorucne vytvorených aplikácií, videí, hudby ai. Autori stránok nenesú ziadnu zodpovednost za zverejnené odkazy, komentáre a obsah súborov. Vsetky komentáre, odkazy, súbory ktoré by svojou povahou mohli byt v rozpore zo zákonmi sem vkladáte na vlastnú zodpovednost. Autori stránok si vyhradzujú právo cenzúry odkazov, komentárov príp. súborov, ktoré by svojou povahou mohli byt v rozpore zo zákonmi a dobrými mravmi. Dodrzujte pravidlá!




    Uploader
    10/04/2021 16.48.51
    V ako poradí sledovať Psycho-Pass?
    1. Psycho-Pass - 1. série
    2. Psycho-Pass - 2. série
    3. Psycho-Pass: The Movie / Gekijouban Psycho-Pass
    4. Psycho-Pass - 3. série
    5. Psycho-Pass 3: First Inspector

    Ak vyjde nová séria/film, budem vás o tom informovať

    0
    vlado7766
    Ratio 1.38

    Member+

    25/03/2021 00.06.39
    AKY A KDE STIAHNUT KODEK  K POREHRATIU


    Back

    Na serveru se nenalézají zádne soubory. Za odkazy jsou výhradně zodpovědní uzivatelé a návstěvníci tohoto trackeru. Administrátor není zodpovědný za pridaný obsah ani za skody zpusobené uzivateli. Rozsirovat stránku nebo její obsah bez souhlasu ownera je zakázano. Nesmíte pouzívat tuto webovou stránku pro distribuovaní nebo download zádného materiálu pokud nemáte povolení od príslusného vlastníka práv. Uzivatelé jsou zodpovědní za dodrzování těchto pravidel a podmínek. Owner má právo kdykoliv změnit pravidla tohoto trackeru.

    [ Script trval: 0.041 sec. ] - [ GZIP: enabled ]
    Je zhruba 01:01

    TOPlist