Tvoj účet nieje VIP.
Preto sú tvoje funkcie a možnosti značne obmedzené.
Pre aktiváciu VIP klikni sem.

Raketak / Lightyear 2022 1080p WEB-DL = CSFD 72% | SkTorrent.eu

Cz-SkTorrent open Tracker, na volné zdielanie súborov. Pridajte sa k nasej komunite a získajte pristup k tisícom torrentov.

  • vysoká rýchlost
  • úplne zdarma
  • prevazne Slovenska a Ceska scena
  • ste tu s nami uz 5 rokov - Dakujeme
  • Vitaj Guest (Login) Ako stahovat
    torrenty?
    Torrenty:
    v1 textová
    v2 obrázková
    v3 online filmy
    Ako sa stat
    Uploaderom
    Online
    Filmy
    Forum
    Pravidlá
    BitTorrent
    klient
    Meno: Heslo:
    Zaregistrovat
    Po zaregistrovaní mozte volne stahovat
    Zabudol som heslo

    Torrent's details
    Raketak / Lightyear 2022 1080p WEB-DL = CSFD 72% Názov:Raketak / Lightyear 2022 1080p WEB-DL = CSFD 72% Hodnocení: Stiahnut
    Pozriet Online
    Kategória:Filmy bez titulků Velikost:7.8 GB BitTorrent klient
    Pridaný: Súbory:
    Skontrolován:2022-07-14 Peerov:4 (Seed: 4, Leech: 0)
    Zaner:Animovany,Dobrodruzny,Fantasy,Rodinny Uploader:Uvidis, az ked budes
    VIP
    Kúp nám Pivo 1,10€

    Kúp nám Pivo
    Podporte nas na Facebooku !
    Pridaj do zalozky
    Pridaj do zalozky




    https://www.csfd.cz/film/954414-raketak/hraji/

    Jazyk - EN
    Titulky - EN

    General
    Unique ID                                : 273963600905300917466394956543156845764 (0xCE1B786353000529576C652C23BC7CC4)
    Complete name                            : Lightyear.2022.1080p.WEB-DL.DDP5.1.Atmos.H.264-EVO.mkv
    Format                                   : Matroska
    Format version                           : Version 4
    File size                                : 7.81 GiB
    Duration                                 : 1 h 45 min
    Overall bit rate                         : 10.6 Mb/s
    Encoded date                             : UTC 2022-07-14 09:12:14
    Writing application                      : mkvmerge v63.0.0 ('Everything') 64-bit
    Writing library                          : libebml v1.4.2 + libmatroska v1.6.4

    Video
    ID                                       : 1
    Format                                   : AVC
    Format/Info                              : Advanced Video Codec
    Format profile                           : High@L4
    Format settings                          : CABAC / 5 Ref Frames
    Format settings, CABAC                   : Yes
    Format settings, Reference frames        : 5 frames
    Codec ID                                 : V_MPEG4/ISO/AVC
    Duration                                 : 1 h 45 min
    Bit rate                                 : 9 877 kb/s
    Width                                    : 1 920 pixels
    Height                                   : 804 pixels
    Display aspect ratio                     : 2.40:1
    Frame rate mode                          : Constant
    Frame rate                               : 23.976 (24000/1001) FPS
    Color space                              : YUV
    Chroma subsampling                       : 4:2:0
    Bit depth                                : 8 bits
    Scan type                                : Progressive
    Bits/(Pixel*Frame)                       : 0.267
    Stream size                              : 7.25 GiB (93%)
    Default                                  : Yes
    Forced                                   : No
    Color range                              : Limited
    Color primaries                          : BT.709
    Transfer characteristics                 : BT.709
    Matrix coefficients                      : BT.709

    Audio
    ID                                       : 2
    Format                                   : E-AC-3 JOC
    Format/Info                              : Enhanced AC-3 with Joint Object Coding
    Commercial name                          : Dolby Digital Plus with Dolby Atmos
    Codec ID                                 : A_EAC3
    Duration                                 : 1 h 45 min
    Bit rate mode                            : Constant
    Bit rate                                 : 768 kb/s
    Channel(s)                               : 6 channels
    Channel layout                           : L R C LFE Ls Rs
    Sampling rate                            : 48.0 kHz
    Frame rate                               : 31.250 FPS (1536 SPF)
    Compression mode                         : Lossy
    Stream size                              : 577 MiB (7%)
    Language                                 : English
    Service kind                             : Complete Main
    Default                                  : Yes
    Forced                                   : No
    Complexity index                         : 16
    Number of dynamic objects                : 15
    Bed channel count                        : 1 channel
    Bed channel configuration                : LFE



     



    ONLINE

    CZ dabing






    SK dabing


    Upozornenie:
    Ziadny zo zobrazených súborov sa nenachádza na tomto serveri. Server slúzi len k síreniu vlastnorucne vytvorených aplikácií, videí, hudby ai. Autori stránok nenesú ziadnu zodpovednost za zverejnené odkazy, komentáre a obsah súborov. Vsetky komentáre, odkazy, súbory ktoré by svojou povahou mohli byt v rozpore zo zákonmi sem vkladáte na vlastnú zodpovednost. Autori stránok si vyhradzujú právo cenzúry odkazov, komentárov príp. súborov, ktoré by svojou povahou mohli byt v rozpore zo zákonmi a dobrými mravmi. Dodrzujte pravidlá!





    -1
    arunon
    Ratio 0.14

    Clen

    24/07/2022 20.45.58
    Jako pěkný, ale nejsou tam ani anglický titulky i když je to v popisu.  Takže nekoukatelný, s EN titulkama bych to dal ale bez nich...NE

    0
    badd1
    Ratio 4.07

    Member+

    17/07/2022 14.31.16
    https://ulozto.cz/file/CCVt6nqpXCIu/raketak-2022-vtt#!ZGuxBGR2ZGN5AQR0MQH2AmOzLmDkBKIWD1uRMz40HT1LZGN3ZN==


    --------------
    >> 17/07/2022 20.08.51
    zahous: primo na tuhle verzi? Mas odzkousene?

    0
    Harper66
    Ratio 3.48

    Member+

    14/07/2022 16.18.19
    Kde to vzali, kdyz to krome kina neni ani na Disney+?

    0
    robert19791979
    Ratio 0.12

    Clen

    14/07/2022 13.19.14
    Po slovensky to nema niekto ? Zrejme je to z Disney+ uz,nie?


    --------------
    >> 14/07/2022 13.27.01
    hudynko: nie na Disney este nieje


    Back

    Na serveru se nenalézají zádne soubory. Za odkazy jsou výhradně zodpovědní uzivatelé a návstěvníci tohoto trackeru. Administrátor není zodpovědný za pridaný obsah ani za skody zpusobené uzivateli. Rozsirovat stránku nebo její obsah bez souhlasu ownera je zakázano. Nesmíte pouzívat tuto webovou stránku pro distribuovaní nebo download zádného materiálu pokud nemáte povolení od príslusného vlastníka práv. Uzivatelé jsou zodpovědní za dodrzování těchto pravidel a podmínek. Owner má právo kdykoliv změnit pravidla tohoto trackeru.

    [ Script trval: 0.026 sec. ] - [ GZIP: enabled ]
    Je zhruba 06:24
    memcache

    TOPlist