Tvoj účet nieje VIP.
Preto sú tvoje funkcie a možnosti značne obmedzené.
Pre aktiváciu VIP klikni sem.

Raketak / Lightyear (CZ/SK/EN)(2022)(WebRip)(1080p-HEVC -10bit) = CSFD 70% | SkTorrent.eu

Cz-SkTorrent open Tracker, na volné zdielanie súborov. Pridajte sa k nasej komunite a získajte pristup k tisícom torrentov.

  • vysoká rýchlost
  • úplne zdarma
  • prevazne Slovenska a Ceska scena
  • ste tu s nami uz 5 rokov - Dakujeme
  • Vitaj Guest (Login) Ako stahovat
    torrenty?
    Torrenty:
    v1 textová
    v2 obrázková
    v3 online filmy
    Ako sa stat
    Uploaderom
    Online
    Filmy
    Forum
    Pravidlá
    BitTorrent
    klient
    Meno: Heslo:
    Zaregistrovat
    Po zaregistrovaní mozte volne stahovat
    Zabudol som heslo

    Torrent's details
    Raketak / Lightyear (CZ/SK/EN)(2022)(WebRip)(1080p-HEVC -10bit) = CSFD 70% Názov:Raketak / Lightyear (CZ/SK/EN)(2022)(WebRip)(1080p-HEVC -10bit) = CSFD 70% Hodnocení: Stiahnut
    Pozriet Online
    Kategória:Filmy Kreslené Velikost:2.1 GB BitTorrent klient
    Pridaný: Súbory:
    Skontrolován:2022-08-03 Peerov:72 (Seed: 72, Leech: 0)
    Zaner:Animovany,Dobrodruzny,Fantasy,Rodinny Uploader:Uvidis, az ked budes
    VIP
    Kúp nám Pivo 1,10€

    Kúp nám Pivo
    Podporte nas na Facebooku !
    Pridaj do zalozky
    Pridaj do zalozky











    Animovaný / Dobrodružný / Rodinný / Fantasy / Sci-Fi
    USA, 2022, 105 min


    Video: 1080p MKV HEVC 10bit
    Audio : CZ/SK/EN Dabing - E-AC-3 5.1- 256 kb/s
    Titulky : CZ/SK/EN + forced

    Režie: Angus MacLane
    Scénář: Jason Headley, Angus MacLane
    Kamera: Jeremy Lasky, Ian Megibben
    Hudba: Michael Giacchino
    Hrají: Chris Evans, Taika Waititi, Keke Palmer, James Brolin, Efren Ramirez, Uzo Aduba, Isiah Whitlock Jr., Peter Sohn, Dale Soules, Bill Hader
    Produkce: Galyn Susman

    Náhled








    Zkušený člen Vesmírného ochranného sboru Buzz Rakeťák, jeho velitelka Alisha Hlohová a posádka více než tisíce vědců a techniků se vracejí domů ze své aktuální mise. Přibližně 4,2 milionu světelných let od Země je senzor upozorní na přítomnost blízké nezmapované, ale na zdroje potenciálně bohaté planety. Buzz rozhodne, že si jejich průzkumná loď udělá menší okliku a neznámou planetu T’Kani Prime – bažinatou planetu s agresivními liánami a obřími brouky – se vydá prozkoumat. Snaha o rychlý odlet se však zvrtne a vyvrcholí havárií, při níž exploduje palivový článek a Buzz s Alishou a zbytkem posádky na nepříliš přívětivé planetě uvíznou. (Falcon)



    Formát                                   : Matroska
    Format version                           : Version 4
    Velikost souboru                         : 2,07 GiB
    Duration                                 : 1 h 45 min
    Celkový BitRate                          : 2 819 kb/s
    Název filmu                              : Rakeťák
    Description                              : Akční a dobrodružný sci-fi film a ucelený příběh o původu Buzze Rakeťáka, hrdiny, jenž se stal inspirací pro hračku „Rakeťák“, sleduje legendárního strážce vesmíru, po té co uvíznul na nepřátelské planetě 4,2 milionů světelných let od Země, spolu se svou velitelkou a posádkou. Buzz se snaží najít cestu domů v prostoru a čase, přičemž se k němu přidá skupina ambiciózních nováčků a roztomilý kočičí robot Sox, který mu bude společníkem. Situaci zkomplikuje a misi ohrozí příchod Zurga, impozantní postavy s armádou bezohledných robotů a záhadným programem. Postavy ve filmu namluvili Chris Evans jako vynikající strážce vesmíru Buzz Rakeťák, Uzo Adubová jako jeho velitelka a nejlepší kamarádka Alisha Hlohová a Peter Sohn jako Sox. Keke Palmerová, Taika Waititi a Dale Soulesová propůjčili své hlasy služebně mladší člence hlídky Izzy Hlohové, Mo Morrrisonovi a Darby Steelové, v tomto pořadí, a  jako tajemného Zurga uslyšíte Jamese Brolina. V hlasovém obsazení dále účinkují Mary Mc Donaldová-Lewisová jako palubní počítač I.V.A.N., Isiah Whitlock Jr. jako velitel Burnside, Efren Ramirez jako Airman Diaz a Keira Hairstonová jako mladá Izzy. Film režíroval Angus MacLane (spolurežisér filmu „Hledá se Dory“, producentkou je Galyn Susmanová („Toy Story That Time Forgot” a hudbu složil oceněný skladatel Michael Giacchino („Batman“, „Vzhůru do oblak”.
    Encoded date                             : UTC 2022-08-03 11:20:42
    Použitý software                         : HandBrake 1.5.1 2022011000
    Enkódoval                                : Lavf58.76.100
    ErrorDetectionType                       : Per level 1
    ARTIST                                   : Chris Evans,Keke Palmer,Peter Sohn,Taika Waititi,Dale Soules,James Brolin

    Video
    ID                                       : 1
    Formát                                   : HEVC
    Formát/Info                              : High Efficiency Video Coding
    Format profile                           : Main 10@L4@Main
    Codec ID                                 : V_MPEGH/ISO/HEVC
    Duration                                 : 1 h 45 min
    Bit rate                                 : 1 994 kb/s
    Šířka                                    : 1 920pixely
    Výška                                    : 1 080pixely
    Poměr stran                              : 2,40:1
    Frame rate mode                          : Constant
    Frame rate                               : 23,976 (24000/1001) FPS
    Color space                              : YUV
    Chroma subsampling                       : 4:2:0 (Type 0)
    Bit depth                                : 10 bits
    Bits/(Pixel*Frame)                       : 0.040
    Stream size                              : 1,46 GiB (71%)
    Enkódoval                                : x265 3.5+1-f0c1022b6:[Windows][GCC 10.2.0][64 bit] 10bit
    Nastavení enkoderu                       : cpuid=1111039 / frame-threads=4 / numa-pools=16 / wpp / no-pmode / no-pme / no-psnr / no-ssim / log-level=2 / input-csp=1 / input-res=1920x1080 / interlace=0 / total-frames=0 / level-idc=0 / high-tier=1 / uhd-bd=0 / ref=3 / no-allow-non-conformance / no-repeat-headers / annexb / no-aud / no-hrd / info / hash=0 / no-temporal-layers / open-gop / min-keyint=24 / keyint=240 / gop-lookahead=0 / bframes=4 / b-adapt=0 / b-pyramid / bframe-bias=0 / rc-lookahead=15 / lookahead-slices=6 / scenecut=40 / hist-scenecut=0 / radl=0 / no-splice / no-intra-refresh / ctu=64 / min-cu-size=8 / no-rect / no-amp / max-tu-size=32 / tu-inter-depth=1 / tu-intra-depth=1 / limit-tu=0 / rdoq-level=0 / dynamic-rd=0.00 / no-ssim-rd / signhide / no-tskip / nr-intra=0 / nr-inter=0 / no-constrained-intra / strong-intra-smoothing / max-merge=2 / limit-refs=3 / no-limit-modes / me=1 / subme=2 / merange=57 / temporal-mvp / no-frame-dup / no-hme / weightp / no-weightb / no-analyze-src-pics / deblock=0:0 / sao / no-sao-non-deblock / rd=2 / selective-sao=4 / no-early-skip / rskip / fast-intra / no-tskip-fast / no-cu-lossless / no-b-intra / no-splitrd-skip / rdpenalty=0 / psy-rd=2.00 / psy-rdoq=0.00 / no-rd-refine / no-lossless / cbqpoffs=0 / crqpoffs=0 / rc=crf / crf=22.0 / qcomp=0.60 / qpstep=4 / stats-write=0 / stats-read=0 / ipratio=1.40 / pbratio=1.30 / aq-mode=2 / aq-strength=1.00 / cutree / zone-count=0 / no-strict-cbr / qg-size=32 / no-rc-grain / qpmax=69 / qpmin=0 / no-const-vbv / sar=255 / sar-width / : / sar-height=90:67 / overscan=0 / videoformat=5 / range=0 / colorprim=1 / transfer=1 / colormatrix=1 / chromaloc=1 / chromaloc-top=0 / chromaloc-bottom=0 / display-window=0 / cll=0,0 / min-luma=0 / max-luma=1023 / log2-max-poc-lsb=8 / vui-timing-info / vui-hrd-info / slices=1 / no-opt-qp-pps / no-opt-ref-list-length-pps / no-multi-pass-opt-rps / scenecut-bias=0.05 / hist-threshold=0.03 / no-opt-cu-delta-qp / no-aq-motion / no-hdr10 / no-hdr10-opt / no-dhdr10-opt / no-idr-recovery-sei / analysis-reuse-level=0 / analysis-save-reuse-level=0 / analysis-load-reuse-level=0 / scale-factor=0 / refine-intra=0 / refine-inter=0 / refine-mv=1 / refine-ctu-distortion=0 / no-limit-sao / ctu-info=0 / no-lowpass-dct / refine-analysis-type=0 / copy-pic=1 / max-ausize-factor=1.0 / no-dynamic-refine / no-single-sei / no-hevc-aq / no-svt / no-field / qp-adaptation-range=1.00 / scenecut-aware-qp=0conformance-window-offsets / right=0 / bottom=0 / decoder-max-rate=0 / no-vbv-live-multi-pass
    Default                                  : Ano
    Forced                                   : Ne
    Color range                              : Limited
    Color primaries                          : BT.709
    Transfer characteristics                 : BT.709
    Matrix coefficients                      : BT.709

    Audio #1
    ID                                       : 2
    Formát                                   : E-AC-3
    Formát/Info                              : Enhanced AC-3
    Commercial name                          : Dolby Digital Plus
    Codec ID                                 : A_EAC3
    Duration                                 : 1 h 45 min
    Bit rate mode                            : Constant
    Bit rate                                 : 256 kb/s
    Kanál(y)                                 : 6 kanály
    Channel layout                           : L R C LFE Ls Rs
    Sampling rate                            : 48,0 kHz
    Frame rate                               : 31,250 FPS (1536 SPF)
    Compression mode                         : Lossy
    Stream size                              : 192 MiB (9%)
    Titul                                    : Čeština
    Jazyk                                    : Czech
    Service kind                             : Complete Main
    Default                                  : Ano
    Forced                                   : Ne

    Audio #2
    ID                                       : 3
    Formát                                   : AC-3
    Formát/Info                              : Audio Coding 3
    Commercial name                          : Dolby Digital
    Codec ID                                 : A_AC3
    Duration                                 : 1 h 45 min
    Bit rate mode                            : Constant
    Bit rate                                 : 256 kb/s
    Kanál(y)                                 : 6 kanály
    Channel layout                           : L R C LFE Ls Rs
    Sampling rate                            : 48,0 kHz
    Frame rate                               : 31,250 FPS (1536 SPF)
    Compression mode                         : Lossy
    Stream size                              : 192 MiB (9%)
    Titul                                    : Slovenština
    Jazyk                                    : Slovak
    Service kind                             : Complete Main
    Default                                  : Ne
    Forced                                   : Ne

    Audio #3
    ID                                       : 4
    Formát                                   : AC-3
    Formát/Info                              : Audio Coding 3
    Commercial name                          : Dolby Digital
    Codec ID                                 : A_AC3
    Duration                                 : 1 h 45 min
    Bit rate mode                            : Constant
    Bit rate                                 : 256 kb/s
    Kanál(y)                                 : 6 kanály
    Channel layout                           : L R C LFE Ls Rs
    Sampling rate                            : 48,0 kHz
    Frame rate                               : 31,250 FPS (1536 SPF)
    Compression mode                         : Lossy
    Stream size                              : 192 MiB (9%)
    Titul                                    : Angličtina
    Jazyk                                    : English
    Service kind                             : Complete Main
    Default                                  : Ne
    Forced                                   : Ne

    Text #1
    ID                                       : 5
    Formát                                   : ASS
    Codec ID                                 : S_TEXT/ASS
    Codec ID/Info                            : Advanced Sub Station Alpha
    Duration                                 : 1 h 43 min
    Compression mode                         : Lossless
    Titul                                    : Čeština
    Jazyk                                    : Czech
    Default                                  : Ne
    Forced                                   : Ne

    Text #2
    ID                                       : 6
    Formát                                   : ASS
    Codec ID                                 : S_TEXT/ASS
    Codec ID/Info                            : Advanced Sub Station Alpha
    Duration                                 : 1 h 35 min
    Compression mode                         : Lossless
    Titul                                    : cs--forced--
    Jazyk                                    : Czech
    Default                                  : Ne
    Forced                                   : Ne

    Text #3
    ID                                       : 7
    Formát                                   : ASS
    Codec ID                                 : S_TEXT/ASS
    Codec ID/Info                            : Advanced Sub Station Alpha
    Duration                                 : 1 h 43 min
    Compression mode                         : Lossless
    Titul                                    : Slovenčina
    Jazyk                                    : Slovak
    Default                                  : Ne
    Forced                                   : Ne

    Text #4
    ID                                       : 8
    Formát                                   : ASS
    Codec ID                                 : S_TEXT/ASS
    Codec ID/Info                            : Advanced Sub Station Alpha
    Duration                                 : 1 h 35 min
    Compression mode                         : Lossless
    Titul                                    : sk--forced--
    Jazyk                                    : Slovak
    Default                                  : Ne
    Forced                                   : Ne

    Text #5
    ID                                       : 9
    Formát                                   : ASS
    Codec ID                                 : S_TEXT/ASS
    Codec ID/Info                            : Advanced Sub Station Alpha
    Duration                                 : 1 h 44 min
    Compression mode                         : Lossless
    Titul                                    : English [CC]
    Jazyk                                    : English
    Default                                  : Ne
    Forced                                   : Ne








    ONLINE

    CZ dabing






    SK dabing






    CZ titulky









    Arany, VojtaNN, jano66, AcePeter61, Lucyfyre666, davefus, pupiksk, Bartson, PISAK,

    + Pridaj vlastnu verziu tohto torrentu +


    Upozornenie:
    Ziadny zo zobrazených súborov sa nenachádza na tomto serveri. Server slúzi len k síreniu vlastnorucne vytvorených aplikácií, videí, hudby ai. Autori stránok nenesú ziadnu zodpovednost za zverejnené odkazy, komentáre a obsah súborov. Vsetky komentáre, odkazy, súbory ktoré by svojou povahou mohli byt v rozpore zo zákonmi sem vkladáte na vlastnú zodpovednost. Autori stránok si vyhradzujú právo cenzúry odkazov, komentárov príp. súborov, ktoré by svojou povahou mohli byt v rozpore zo zákonmi a dobrými mravmi. Dodrzujte pravidlá!





    0
    MalamadreR
    Ratio 1

    VIP

    03/08/2022 15.21.56
    Bylo by fajn napsat, že je to WEBDL


    --------------
    >> 03/08/2022 15.27.40
    UPLOADER: Vedle na privátu sem dostal po šlapkách že to není Web-DL ale WebRip , pokud je zájem budu nahazovat dále


    --------------
    >> 03/08/2022 15.32.40
    MalamadreR: Ono WEBDL a WEBRIP je takřka to samý, to už bych já osobně tak neřešil


    --------------
    >> 03/08/2022 15.37.08
    UPLOADER: Jsem stejného názoru pokud to šlape jak má tak rozdíl nevidím


    --------------
    >> 03/08/2022 15.59.49
    filename: Jo, je jedno jestli WEB-DL nebo Webrip, důležité je uvést ten zdroj, aby se prostě vědělo že se nejedná o rip z BD.


    --------------
    >> 03/08/2022 16.01.36
    filename: A jinak kategorie Filmy kreslené, již jsem to přehodil.


    Back

    Na serveru se nenalézají zádne soubory. Za odkazy jsou výhradně zodpovědní uzivatelé a návstěvníci tohoto trackeru. Administrátor není zodpovědný za pridaný obsah ani za skody zpusobené uzivateli. Rozsirovat stránku nebo její obsah bez souhlasu ownera je zakázano. Nesmíte pouzívat tuto webovou stránku pro distribuovaní nebo download zádného materiálu pokud nemáte povolení od príslusného vlastníka práv. Uzivatelé jsou zodpovědní za dodrzování těchto pravidel a podmínek. Owner má právo kdykoliv změnit pravidla tohoto trackeru.

    [ Script trval: 0.069 sec. ] - [ GZIP: enabled ]
    Je zhruba 13:03
    sql

    TOPlist