Tvoj účet nieje VIP.
Preto sú tvoje funkcie a možnosti značne obmedzené.
Pre aktiváciu VIP klikni sem.

Rambo III (1988)(Remastered)(BluRay)(1080p)(3xCZ/2xEN) = CSFD 62% | SkTorrent.eu

Cz-SkTorrent open Tracker, na volné zdielanie súborov. Pridajte sa k nasej komunite a získajte pristup k tisícom torrentov.

  • vysoká rýchlost
  • úplne zdarma
  • prevazne Slovenska a Ceska scena
  • ste tu s nami uz 5 rokov - Dakujeme
  • Vitaj Guest (Login) Ako stahovat
    torrenty?
    Torrenty:
    v1 textová
    v2 obrázková
    v3 online filmy
    Ako sa stat
    Uploaderom
    Online
    Filmy
    Forum
    Pravidlá
    BitTorrent
    klient
    Meno: Heslo:
    Zaregistrovat
    Po zaregistrovaní mozte volne stahovat
    Zabudol som heslo

    Torrent's details
    Rambo III (1988)(Remastered)(BluRay)(1080p)(3xCZ/2xEN) = CSFD 62% Názov:Rambo III (1988)(Remastered)(BluRay)(1080p)(3xCZ/2xEN) = CSFD 62% Hodnocení: Stiahnut
    Pozriet Online
    Kategória:HD Filmy Velikost:20.0 GB BitTorrent klient
    Pridaný: Súbory:
    Skontrolován:2021-07-28 Peerov:5 (Seed: 5, Leech: 0)
    Zaner:Akcni,Dobrodruzny,Thriller,Valecny Uploader:Uvidis, az ked budes
    VIP
    Kúp nám Pivo 1,10€

    Kúp nám Pivo
    Podporte nas na Facebooku !
    Pridaj do zalozky
    Pridaj do zalozky








    Rambo III (1988) (Remastered)
    (BluRay Verze 2018) BluRay rip 3x CZ dabing
    (Aleš Procházka DD 5.1 / Marek Pavlovský DD 2.0 / Pavel Rímský DD 2.0)
    a púvodní EN DTS/DD 5.1 dabing + CZ tit


                   










    Akční / Dobrodružný / Thriller / Válečný
    USA, 1988, 102 min (Alternativní 97 min)
    Režie: Peter MacDonald
    Scénář: (Sylvester Stallone - ), Sheldon Lettich
    Kamera: John Stanier
    Hudba: Jerry Goldsmith
    Hrají: (Sylvester Stallone - ), Richard Crenna, Marc de Jonge, Kurtwood Smith, Spiros Focás, Sasson Gabai, Doudi Shoua, Randy Raney, Marcus Gilbert,





    Rambův bývalý velitel z Vietnamu, plukovník Samuel Trautman, vede misi na pomoc mudžahedínským vzbouřencům v Afghánistánu, kteří bojují proti sovětské invazi do Afghánistánu. Je tam ale zajat, uvězněn a krutě mučen ruským plukovníkem Zajcenem. Ze zajetí by ho mohl dostat jediný muž – a tím je právě Rambo… Seržant americké armády John J. Rambo se po prožitých dobrodružstvích ve vietnamské válce uchyluje do ústraní thajského kláštera. Věnuje se meditacím a jen občas si odskočí do boxerského ringu. Tam ho vyhledá jeho bývalý velící důstojník z Vietnamu, plukovník Samuel Trautman. Přemlouvá jej k účasti na válečné misi, která má za cíl dopravit americké rakety Stinger statečným mudžáhedínům v Sověty okupovaném Afghánistánu. Rambo odmítá, nechce již bojovat... Po čase jej navštíví důstojník Griggs a sděluje mu, že plukovník Trautman byl při akci zajat Sověty a je držen v pevnosti poblíž pákistánských hranic jako rukojmí. To Ramba přesvědčí a vydává se na záchranu svého druha. V pákistánském Pešáváru se vyzbrojí municí a zkontaktuje se s mudžahedíny vedenými Masoudem. Na sovětské základně je Samuel Trautman podrobován krutému mučení brutálním sovětským plukovníkem Zaysenem, aby vyzradil místo dodání raket. Rambo se sbližuje s mudžahedíny a obdivuje jejich statečný boj proti okupantům. Když Zaysen nechá z vrtulníků zmasakrovat vesnici, vrhá se Rambo do boje s plným nasazením a pevným přesvědčením o spravedlivosti svého boje... Ihned zlikviduje pomocí těžkého kulometu jeden z útočících vrtulníků a ještě té noci se obtěžkán municí vydává v doprovodu Masouda a malého chlapce Hamida na záchrannou akci do pevnosti...








    Formát                                   : Matroska
    Format version                           : Version 4
    Velikost souboru                         : 20,0 GiB
    Duration                                 : 1 h 41 min
    Overall bit rate mode                    : Variable
    Celkový BitRate                          : 28,2 Mb/s
    Název filmu                              : Rambo III (1988)(Remastered)(MAX verze)(BluRay)(1080p)(3xCZ-2xEN) PHDTeam
    Encoded date                             : UTC 2021-07-08 17:53:03
    Použitý software                         : mkvmerge v58.0.0 ('Supper's Ready') 64-bit
    Enkódoval                                : libebml v1.4.2 + libmatroska v1.6.4

    Video
    ID                                       : 1
    Formát                                   : AVC
    Formát/Info                              : Advanced Video Codec
    Format profile                           : High@L4.1
    Format settings                          : CABAC / 4 Ref Frames
    Format settings, CABAC                   : Ano
    Format settings, Reference frames        : 4 frames
    Codec ID                                 : V_MPEG4/ISO/AVC
    Duration                                 : 1 h 41 min
    Bit rate mode                            : Variable
    Bit rate                                 : 25,1 Mb/s
    Maximum bit rate                         : 32,0 Mb/s
    Šířka                                    : 1 920pixely
    Výška                                    : 1 080pixely
    Poměr stran                              : 16:9
    Frame rate mode                          : Constant
    Frame rate                               : 24,000 FPS
    Standard                                 : NTSC
    Color space                              : YUV
    Chroma subsampling                       : 4:2:0
    Bit depth                                : 8 bits
    Scan type                                : Progressive
    Bits/(Pixel*Frame)                       : 0.505
    Stream size                              : 17,8 GiB (89%)
    Titul                                    : Rambo III (1988)(Remastered) PHDTeam
    Jazyk                                    : English
    Default                                  : Ne
    Forced                                   : Ne
    Color range                              : Limited
    Color primaries                          : BT.709
    Transfer characteristics                 : BT.709
    Matrix coefficients                      : BT.709

    Audio #1
    ID                                       : 2
    Formát                                   : DTS
    Formát/Info                              : Digital Theater Systems
    Codec ID                                 : A_DTS
    Duration                                 : 1 h 41 min
    Bit rate mode                            : Constant
    Bit rate                                 : 1 509 kb/s
    Kanál(y)                                 : 6 kanály
    Channel layout                           : C L R Ls Rs LFE
    Sampling rate                            : 48,0 kHz
    Frame rate                               : 93,750 FPS (512 SPF)
    Bit depth                                : 24 bits
    Compression mode                         : Lossy
    Stream size                              : 1,07 GiB (5%)
    Titul                                    : DTS 5.1 1510Kbps
    Jazyk                                    : English
    Default                                  : Ano
    Forced                                   : Ne

    Audio #2
    ID                                       : 4
    Formát                                   : AC-3
    Formát/Info                              : Audio Coding 3
    Commercial name                          : Dolby Digital
    Codec ID                                 : A_AC3
    Duration                                 : 1 h 41 min
    Bit rate mode                            : Constant
    Bit rate                                 : 640 kb/s
    Kanál(y)                                 : 6 kanály
    Channel layout                           : L R C LFE Ls Rs
    Sampling rate                            : 48,0 kHz
    Frame rate                               : 31,250 FPS (1536 SPF)
    Compression mode                         : Lossy
    Stream size                              : 464 MiB (2%)
    Titul                                    : EN DD 5.1 640Kbps
    Jazyk                                    : English
    Service kind                             : Complete Main
    Default                                  : Ne
    Forced                                   : Ne

    Audio #3
    ID                                       : 5
    Formát                                   : AC-3
    Formát/Info                              : Audio Coding 3
    Commercial name                          : Dolby Digital
    Codec ID                                 : A_AC3
    Duration                                 : 1 h 41 min
    Bit rate mode                            : Constant
    Bit rate                                 : 256 kb/s
    Kanál(y)                                 : 2 kanály
    Channel layout                           : L R
    Sampling rate                            : 48,0 kHz
    Frame rate                               : 31,250 FPS (1536 SPF)
    Compression mode                         : Lossy
    Video delay                              : 12 ms
    Stream size                              : 186 MiB (1%)
    Titul                                    : Pavel Rímský DD 2.0 256Kbps
    Jazyk                                    : Czech
    Service kind                             : Complete Main
    Default                                  : Ne
    Forced                                   : Ne

    Audio #4
    ID                                       : 6
    Formát                                   : AC-3
    Formát/Info                              : Audio Coding 3
    Commercial name                          : Dolby Digital
    Codec ID                                 : A_AC3
    Duration                                 : 1 h 41 min
    Bit rate mode                            : Constant
    Bit rate                                 : 256 kb/s
    Kanál(y)                                 : 2 kanály
    Channel layout                           : L R
    Sampling rate                            : 48,0 kHz
    Frame rate                               : 31,250 FPS (1536 SPF)
    Compression mode                         : Lossy
    Video delay                              : 26 ms
    Stream size                              : 186 MiB (1%)
    Titul                                    : Marek Pavlovský DD 2.0 256Kbps
    Jazyk                                    : Czech
    Service kind                             : Complete Main
    Default                                  : Ne
    Forced                                   : Ne

    Audio #5
    ID                                       : 7
    Formát                                   : AC-3
    Formát/Info                              : Audio Coding 3
    Commercial name                          : Dolby Digital
    Codec ID                                 : A_AC3
    Duration                                 : 1 h 41 min
    Bit rate mode                            : Constant
    Bit rate                                 : 448 kb/s
    Kanál(y)                                 : 6 kanály
    Channel layout                           : L R C LFE Ls Rs
    Sampling rate                            : 48,0 kHz
    Frame rate                               : 31,250 FPS (1536 SPF)
    Compression mode                         : Lossy
    Video delay                              : 12 ms
    Stream size                              : 325 MiB (2%)
    Titul                                    : Aleš Procházka DD 5.1 448Kbps
    Jazyk                                    : Czech
    Service kind                             : Complete Main
    Default                                  : Ne
    Forced                                   : Ne

    Text
    ID                                       : 3
    Formát                                   : UTF-8
    Codec ID                                 : S_TEXT/UTF8
    Codec ID/Info                            : UTF-8 Plain Text
    Duration                                 : 1 h 27 min
    Bit rate                                 : 23 b/s
    Count of elements                        : 467
    Stream size                              : 15,3 KiB (0%)
    Titul                                    : CZ tit
    Jazyk                                    : Czech
    Default                                  : Ano
    Forced                                   : Ne














    mattess10,

    + Pridaj vlastnu verziu tohto torrentu +


    Upozornenie:
    Ziadny zo zobrazených súborov sa nenachádza na tomto serveri. Server slúzi len k síreniu vlastnorucne vytvorených aplikácií, videí, hudby ai. Autori stránok nenesú ziadnu zodpovednost za zverejnené odkazy, komentáre a obsah súborov. Vsetky komentáre, odkazy, súbory ktoré by svojou povahou mohli byt v rozpore zo zákonmi sem vkladáte na vlastnú zodpovednost. Autori stránok si vyhradzujú právo cenzúry odkazov, komentárov príp. súborov, ktoré by svojou povahou mohli byt v rozpore zo zákonmi a dobrými mravmi. Dodrzujte pravidlá!


    No comments...


    Back

    Na serveru se nenalézají zádne soubory. Za odkazy jsou výhradně zodpovědní uzivatelé a návstěvníci tohoto trackeru. Administrátor není zodpovědný za pridaný obsah ani za skody zpusobené uzivateli. Rozsirovat stránku nebo její obsah bez souhlasu ownera je zakázano. Nesmíte pouzívat tuto webovou stránku pro distribuovaní nebo download zádného materiálu pokud nemáte povolení od príslusného vlastníka práv. Uzivatelé jsou zodpovědní za dodrzování těchto pravidel a podmínek. Owner má právo kdykoliv změnit pravidla tohoto trackeru.

    [ Script trval: 0.032 sec. ] - [ GZIP: enabled ]
    Je zhruba 14:50

    TOPlist