Tvoj účet nieje VIP.
Preto sú tvoje funkcie a možnosti značne obmedzené.
Pre aktiváciu VIP klikni sem.

Raze .45 / Point 45 (2006)(HD)(720p)(x264)(EN-CZ) = CSFD 52% | SkTorrent.eu

Cz-SkTorrent open Tracker, na volné zdielanie súborov. Pridajte sa k nasej komunite a získajte pristup k tisícom torrentov.

  • vysoká rýchlost
  • úplne zdarma
  • prevazne Slovenska a Ceska scena
  • ste tu s nami uz 5 rokov - Dakujeme
  • Vitaj Guest (Login) Ako stahovat
    torrenty?
    Torrenty:
    v1 textová
    v2 obrázková
    v3 online filmy
    Ako sa stat
    Uploaderom
    Online
    Filmy
    Forum
    Pravidlá
    BitTorrent
    klient
    Meno: Heslo:
    Zaregistrovat
    Po zaregistrovaní mozte volne stahovat
    Zabudol som heslo

    Torrent's details
    Raze .45 / Point 45 (2006)(HD)(720p)(x264)(EN-CZ) = CSFD 52% Názov:Raze .45 / Point 45 (2006)(HD)(720p)(x264)(EN-CZ) = CSFD 52% Hodnocení: Stiahnut
    Pozriet Online
    Kategória:Filmy CZ/SK dabing Velikost:1.7 GB BitTorrent klient
    Pridaný: Súbory:
    Skontrolován:2022-06-12 Peerov:8 (Seed: 8, Leech: 0)
    Zaner:Drama,Krimi,Thriller Uploader:Uvidis, az ked budes
    VIP
    Kúp nám Pivo 1,10€

    Kúp nám Pivo
    Podporte nas na Facebooku !
    Pridaj do zalozky
    Pridaj do zalozky






    [center]






    Movie Name: Point 45 (2006)
    IMDb Rating: 5.5/10

    Quality: 720p (Webrip/DVDrip)
    Language: English (AAC 2.0) Czech (AAC 2.0)
    Subtitles: -
    Director: Gary Lennon
    Writers: Gary Lennon
    Genres: Thiller | Crime | Drama |


    A story of how obsession, addiction and abuse cause a young woman to execute an elaborate plan of revenge.
    ***
    Kat žije se svým přítelem v New Yorku a živí se pouličním prodejem nelegálních zbraní a drog. Její inteligence, krása i sebevědomí ji po boku brutálního tyrana rychle opouští. Její přátelé - Vic, Reilly a Liz – jí ale pomohou naplánovat dokonalou pomstu….
    Kat (Milla Jovovich) je nádherná a zkažená a její hlad po nebezpečí ji stáhnul až na samé dno. Poté, co ji přítel Velký Al (Angus Macfadyen)- nebezpečný drogový dealer - ze žárlivosti málem zabije, pokusí se Kat vzít svůj život do vlastních rukou. Neváhá využít svých přátel i sexuální přitažlivosti k tomu, aby uskutečnila svůj plán






    [/center]

    Format                                   : Matroska
    Format version                           : Version 4
    File size                                : 1.68 GiB
    Duration                                 : 1 h 33 min
    Overall bit rate                         : 2 571 kb/s
    Movie name                               : Point 45 (2006)(HD)(720p)(x264)(EN-CZ) PHDTeam
    Encoded date                             : UTC 2022-06-12 00:19:14
    Writing application                      : mkvmerge v68.0.0 ('The Curtain') 64-bit
    Writing library                          : libebml v1.4.2 + libmatroska v1.6.4 / Lavf58.44.100

    Video
    ID                                       : 1
    Format                                   : AVC
    Format/Info                              : Advanced Video Codec
    Format profile                           : Main@L4.2
    Format settings                          : CABAC / 1 Ref Frames
    Format settings, CABAC                   : Yes
    Format settings, Reference frames        : 1 frame
    Format settings, GOP                     : M=1, N=30
    Codec ID                                 : V_MPEG4/ISO/AVC
    Duration                                 : 1 h 33 min
    Bit rate                                 : 2 302 kb/s
    Width                                    : 1 280 pixels
    Height                                   : 720 pixels
    Display aspect ratio                     : 16:9
    Frame rate mode                          : Constant
    Frame rate                               : 30.000 FPS
    Standard                                 : Component
    Color space                              : YUV
    Chroma subsampling                       : 4:2:0
    Bit depth                                : 8 bits
    Scan type                                : Progressive
    Bits/(Pixel*Frame)                       : 0.083
    Stream size                              : 1.50 GiB (90%)
    Title                                    : Point 45 (2006)(HD)(720p)(x264)(EN-CZ) PHDTeam
    Default                                  : Yes
    Forced                                   : No
    Color range                              : Full
    colour_range_Original                    : Limited

    Audio #1
    ID                                       : 2
    Format                                   : AAC LC
    Format/Info                              : Advanced Audio Codec Low Complexity
    Codec ID                                 : A_AAC-2
    Duration                                 : 1 h 33 min
    Bit rate                                 : 128 kb/s
    Channel(s)                               : 2 channels
    Channel layout                           : L R
    Sampling rate                            : 44.1 kHz
    Frame rate                               : 43.066 FPS (1024 SPF)
    Compression mode                         : Lossy
    Delay relative to video                  : -46 ms
    Stream size                              : 85.6 MiB (5%)
    Language                                 : English
    Default                                  : Yes
    Forced                                   : No

    Audio #2
    ID                                       : 3
    Format                                   : AAC LC
    Format/Info                              : Advanced Audio Codec Low Complexity
    Codec ID                                 : A_AAC-2
    Duration                                 : 1 h 33 min
    Bit rate                                 : 128 kb/s
    Channel(s)                               : 2 channels
    Channel layout                           : L R
    Sampling rate                            : 44.1 kHz
    Frame rate                               : 43.066 FPS (1024 SPF)
    Compression mode                         : Lossy
    Delay relative to video                  : -46 ms
    Stream size                              : 85.6 MiB (5%)
    Language                                 : Czech
    Default                                  : No
    Forced                                   : No
















    666, jankoondovcik, Doudy61, PetrJaros, Jablonka,

    + Pridaj vlastnu verziu tohto torrentu +


    Upozornenie:
    Ziadny zo zobrazených súborov sa nenachádza na tomto serveri. Server slúzi len k síreniu vlastnorucne vytvorených aplikácií, videí, hudby ai. Autori stránok nenesú ziadnu zodpovednost za zverejnené odkazy, komentáre a obsah súborov. Vsetky komentáre, odkazy, súbory ktoré by svojou povahou mohli byt v rozpore zo zákonmi sem vkladáte na vlastnú zodpovednost. Autori stránok si vyhradzujú právo cenzúry odkazov, komentárov príp. súborov, ktoré by svojou povahou mohli byt v rozpore zo zákonmi a dobrými mravmi. Dodrzujte pravidlá!


    No comments...


    Back

    Na serveru se nenalézají zádne soubory. Za odkazy jsou výhradně zodpovědní uzivatelé a návstěvníci tohoto trackeru. Administrátor není zodpovědný za pridaný obsah ani za skody zpusobené uzivateli. Rozsirovat stránku nebo její obsah bez souhlasu ownera je zakázano. Nesmíte pouzívat tuto webovou stránku pro distribuovaní nebo download zádného materiálu pokud nemáte povolení od príslusného vlastníka práv. Uzivatelé jsou zodpovědní za dodrzování těchto pravidel a podmínek. Owner má právo kdykoliv změnit pravidla tohoto trackeru.

    [ Script trval: 0.025 sec. ] - [ GZIP: enabled ]
    Je zhruba 12:00
    sql

    TOPlist