Tvoj účet nieje VIP.
Preto sú tvoje funkcie a možnosti značne obmedzené.
Pre aktiváciu VIP klikni sem.

Re:Monster S01E09 [720p] CZtit = CSFD 71% | SkTorrent.eu

Cz-SkTorrent open Tracker, na volné zdieľanie súborov. Pridajte sa k našej komunite a získajte prístup k tisícom torrentov.

  • vysoká rýchlosť
  • úplne zdarma
  • prevažne Slovenská a Česká scéna
  • ste tu s nami už 10 rokov - Ďakujeme
  • Vitaj Guest (Login) Ako stahovat
    torrenty?
    Torrenty:
    v1 textová
    v2 obrázková
    Ako sa stat
    Uploaderom
    Online
    Filmy
    Forum
    Pravidlá
    SkTSocial
    BitTorrent
    klient
    Meno: Heslo:
    Zaregistrovat
    Po zaregistrovaní mozte volne stahovat
    Zabudol som heslo

    Re:Monster S01E09 [720p] CZtit = CSFD 71% Názov:Re:Monster S01E09 [720p] CZtit = CSFD 71% Hodnocení:N/A Stiahnut
    Pozriet Online
    Kategória:Filmy Kreslené - Velikost:274.4 MB BitTorrent klient
    Pridaný: Súbory:
    Skontrolován:2024-06-08 Peerov:1 (Seed: 1, Leech: 0)
    Zaner:Akcni,Animovany,Dobrodruzny,Fantasy Uploader:Uvidis, az ked budes
    VIP
    Kúp nám Pivo 1,10€

    Kúp nám Pivo

    Pridaj do zalozky
    Pridaj do zalozky





    https://www.csfd.cz/film/1493541-re-monster/videa/

    Animovaný / Akční / Dobrodružný / Fantasy
    Japonsko, 2024, 4 h 48 min (Minutáž: 24 min)
    Jazyk: Japonský
    Titulky: České
    Režie: Takajuki Inagaki, Acuši Ócuki, Šundži Jošida, Kacujuki Kodera (více)
    Předloha: Kogicune Kanekiru (kniha), Harujoši Kobajakawa (komiks)
    Scénář: Hiroši Jamaguči, Taiči Hašimoto
    Kamera: Šin'jo Kondó
    Hudba: Gó Sakabe
    Hrají: Takuja Sató, Kana Ueda, Kenta Hosoda, Ai Kakuma, Ničika Ómori, Aja Jamane, Mijuri Šimabukuro, Hisako Tódžó, Mai Kanno, Hibiku Jamamura, Nene Hieda


    Popis: Po předčasné smrti se Tomokui Kanata převtělí do podoby obyčejného goblina, který si však vypěstoval obludný apetit. Díky své nové schopnosti, která mu umožňuje sílit tím víc, čím víc se krmí, se jeho chabé postavení rychle změní a on se vyšvihne na vůdce goblinů. Díky kombinaci svých vzpomínek na minulost, nového těla a silného žaludku se zakousne do nového fantastického světa!

    Media Info:

    Formát                                   : MPEG-4
    Format profile                           : Base Media
    Codec ID                                 : isom (isom/iso2/avc1/mp41)
    Velikost souboru                         : 233 MiB
    Duration                                 : 23 min 40 s
    Celkový BitRate                          : 1 379 kb/s
    Frame rate                               : 23,976 FPS
    Použitý software                         : Lavf61.3.103

    Video
    ID                                       : 1
    Formát                                   : AVC
    Formát/Info                              : Advanced Video Codec
    Format profile                           : High@L3.1
    Format settings                          : CABAC / 4 Ref Frames
    Format settings, CABAC                   : Ano
    Format settings, Reference frames        : 4 frames
    Format settings, GOP                     : M=3, N=30
    Codec ID                                 : avc1
    Codec ID/Info                            : Advanced Video Coding
    Duration                                 : 23 min 40 s
    Bit rate                                 : 1 244 kb/s
    Šířka                                    : 1 280pixely
    Výška                                    : 720pixely
    Poměr stran                              : 16:9
    Frame rate mode                          : Constant
    Frame rate                               : 23,976 (24000/1001) FPS
    Color space                              : YUV
    Chroma subsampling                       : 4:2:0
    Bit depth                                : 8 bits
    Scan type                                : Progressive
    Bits/(Pixel*Frame)                       : 0.056
    Stream size                              : 211 MiB (90%)
    Enkódoval                                : x264 core 164 r3191 4613ac3
    Nastavení enkoderu                       : cabac=1 / ref=3 / deblock=1:-1:-1 / analyse=0x3:0x113 / me=hex / subme=7 / psy=1 / psy_rd=1.00:0.15 / mixed_ref=1 / me_range=16 / chroma_me=1 / trellis=1 / 8x8dct=1 / cqm=0 / deadzone=21,11 / fast_pskip=1 / chroma_qp_offset=-3 / threads=22 / lookahead_threads=3 / sliced_threads=0 / nr=0 / decimate=1 / interlaced=0 / bluray_compat=0 / constrained_intra=0 / bframes=2 / b_pyramid=2 / b_adapt=1 / b_bias=0 / direct=1 / weightb=1 / open_gop=0 / weightp=2 / keyint=30 / keyint_min=3 / scenecut=40 / intra_refresh=0 / rc_lookahead=30 / rc=crf / mbtree=1 / crf=23.0 / qcomp=0.60 / qpmin=0 / qpmax=69 / qpstep=4 / ip_ratio=1.40 / aq=1:1.00
    Jazyk                                    : Japanese
    Color range                              : Limited
    Color primaries                          : BT.709
    Transfer characteristics                 : BT.709
    Matrix coefficients                      : BT.709
    Codec configuration box                  : avcC

    Audio
    ID                                       : 2
    Formát                                   : AAC LC
    Formát/Info                              : Advanced Audio Codec Low Complexity
    Codec ID                                 : mp4a-40-2
    Duration                                 : 23 min 40 s
    Bit rate mode                            : Constant
    Bit rate                                 : 128 kb/s
    Kanál(y)                                 : 2 kanály
    Channel layout                           : L R
    Sampling rate                            : 44,1 kHz
    Frame rate                               : 43,066 FPS (1024 SPF)
    Compression mode                         : Lossy
    Stream size                              : 21,7 MiB (9%)
    Jazyk                                    : Japanese
    Default                                  : Ano
    Alternate group                          : 1














    + Pridaj vlastnu verziu tohto torrentu +


    Upozornenie:
    Ziadny zo zobrazených súborov sa nenachádza na tomto serveri. Server slúzi len k síreniu vlastnorucne vytvorených aplikácií, videí, hudby ai. Autori stránok nenesú ziadnu zodpovednost za zverejnené odkazy, komentáre a obsah súborov. Vsetky komentáre, odkazy, súbory ktoré by svojou povahou mohli byt v rozpore zo zákonmi sem vkladáte na vlastnú zodpovednost. Autori stránok si vyhradzujú právo cenzúry odkazov, komentárov príp. súborov, ktoré by svojou povahou mohli byt v rozpore zo zákonmi a dobrými mravmi. Dodrzujte pravidlá!


    No comments...


    Back

    Na serveru se nenalézají zádne soubory. Za odkazy jsou výhradně zodpovědní uzivatelé a návstěvníci tohoto trackeru. Administrátor není zodpovědný za pridaný obsah ani za skody zpusobené uzivateli. Nesmíte pouzívat tuto webovou stránku pro distribuovaní nebo download zádného materiálu pokud nemáte povolení od príslusného vlastníka práv. Uzivatelé jsou zodpovědní za dodrzování těchto pravidel a podmínek. Owner má právo kdykoliv změnit pravidla tohoto trackeru.

    [ Script trval: 0.016 sec. ] - [ GZIP: enabled ]
    Je zhruba 04:37
    sql

    TOPlist