Tvoj účet nieje VIP.
Preto sú tvoje funkcie a možnosti značne obmedzené.
Pre aktiváciu VIP klikni sem.

Rick a Morty / Rick and Morty S06E01 [WebRip][1080p] = CSFD 91% | SkTorrent.eu

Cz-SkTorrent open Tracker, na volné zdielanie súborov. Pridajte sa k nasej komunite a získajte pristup k tisícom torrentov.

  • vysoká rýchlost
  • úplne zdarma
  • prevazne Slovenska a Ceska scena
  • ste tu s nami uz 5 rokov - Dakujeme
  • Vitaj Guest (Login) Ako stahovat
    torrenty?
    Torrenty:
    v1 textová
    v2 obrázková
    Ako sa stat
    Uploaderom
    Online
    Filmy
    Forum
    Pravidlá
    BitTorrent
    klient
    Meno: Heslo:
    Zaregistrovat
    Po zaregistrovaní mozte volne stahovat
    Zabudol som heslo

    Rick a Morty / Rick and Morty S06E01 [WebRip][1080p] = CSFD 91% Názov:Rick a Morty / Rick and Morty S06E01 [WebRip][1080p] = CSFD 91% Hodnocení: Stiahnut
    Pozriet Online
    Kategória:Seriál Velikost:679.3 MB BitTorrent klient
    Pridaný: Súbory:
    Skontrolován:2022-09-07 Peerov:28 (Seed: 28, Leech: 0)
    Zaner:Animovany,Dobrodruzny,Komedie,Sci-Fi Uploader:Uvidis, az ked budes
    VIP
    Kúp nám Pivo 1,10€

    Kúp nám Pivo
    Pridaj do zalozky
    Pridaj do zalozky




    Rick.and.Morty.S06E01.1080p.CZ.sub

    Solaricks (S06E01)

    Jazyk: EN
    Titulky: CZ
    Odkaz na CSFD: https://www.csfd.cz/film/360534-rick-a-morty/komentare/
    Animovaný / Dobrodružný / Komedie / Sci-Fi
    USA, 2022, (Minutáž: 21–22 min)





    General
    Unique ID                                : 178942711613987470778177863295921955265 (0x869F1CD776D5EF82050DB4821EAA21C1)
    Complete name                            : C:\Users\Renátka\Downloads\Rick.and.Morty.S06E01.1080p.CZ.sub.mkv
    Format                                   : Matroska
    Format version                           : Version 4
    File size                                : 679 MiB
    Duration                                 : 22 min 19 s
    Overall bit rate                         : 4 254 kb/s
    Encoded date                             : UTC 2022-09-06 07:04:22
    Writing application                      : mkvmerge v70.0.0 ('Caught A Lite Sneeze') 64-bit
    Writing library                          : libebml v1.4.2 + libmatroska v1.6.4

    Video
    ID                                       : 1
    Format                                   : AVC
    Format/Info                              : Advanced Video Codec
    Format profile                           : High@L4.1
    Format settings                          : CABAC / 4 Ref Frames
    Format settings, CABAC                   : Yes
    Format settings, Reference frames        : 4 frames
    Codec ID                                 : V_MPEG4/ISO/AVC
    Duration                                 : 22 min 19 s
    Bit rate                                 : 4 126 kb/s
    Width                                    : 1 920 pixels
    Height                                   : 1 080 pixels
    Display aspect ratio                     : 16:9
    Frame rate mode                          : Constant
    Frame rate                               : 23.976 (24000/1001) FPS
    Color space                              : YUV
    Chroma subsampling                       : 4:2:0
    Bit depth                                : 8 bits
    Scan type                                : Progressive
    Bits/(Pixel*Frame)                       : 0.083
    Stream size                              : 659 MiB (97%)
    Writing library                          : x264 core 164 r3094 bfc87b7
    Encoding settings                        : cabac=1 / ref=4 / deblock=1:-3:-3 / analyse=0x3:0x133 / me=umh / subme=9 / psy=1 / psy_rd=1.00:0.00 / mixed_ref=1 / me_range=16 / chroma_me=1 / trellis=2 / 8x8dct=1 / cqm=0 / deadzone=21,11 / fast_pskip=0 / chroma_qp_offset=-2 / threads=18 / lookahead_threads=1 / sliced_threads=0 / nr=0 / decimate=1 / interlaced=0 / bluray_compat=0 / constrained_intra=0 / bframes=3 / b_pyramid=2 / b_adapt=2 / b_bias=0 / direct=3 / weightb=1 / open_gop=0 / weightp=2 / keyint=250 / keyint_min=23 / scenecut=40 / intra_refresh=0 / rc_lookahead=60 / rc=crf / mbtree=1 / crf=17.0 / qcomp=0.60 / qpmin=0 / qpmax=69 / qpstep=4 / ip_ratio=1.40 / aq=1:0.80
    Default                                  : Yes
    Forced                                   : No
    Color range                              : Limited
    Matrix coefficients                      : BT.709

    Audio
    ID                                       : 2
    Format                                   : AAC LC
    Format/Info                              : Advanced Audio Codec Low Complexity
    Codec ID                                 : A_AAC-2
    Duration                                 : 22 min 19 s
    Bit rate                                 : 126 kb/s
    Channel(s)                               : 2 channels
    Channel layout                           : L R
    Sampling rate                            : 44.1 kHz
    Frame rate                               : 43.066 FPS (1024 SPF)
    Compression mode                         : Lossy
    Stream size                              : 20.1 MiB (3%)
    Language                                 : English
    Default                                  : Yes
    Forced                                   : No

    Text
    ID                                       : 3
    Format                                   : UTF-8
    Codec ID                                 : S_TEXT/UTF8
    Codec ID/Info                            : UTF-8 Plain Text
    Duration                                 : 22 min 16 s
    Bit rate                                 : 98 b/s
    Count of elements                        : 412
    Stream size                              : 16.1 KiB (0%)
    Language                                 : Czech
    Default                                  : Yes
    Forced                                   : No



    ONLINE

    KLIKNI PRO SLEDOVÁNÍ




    huntersk035, Threadt, Korewuash, Jablonka, janezus,

    + Pridaj vlastnu verziu tohto torrentu +


    Upozornenie:
    Ziadny zo zobrazených súborov sa nenachádza na tomto serveri. Server slúzi len k síreniu vlastnorucne vytvorených aplikácií, videí, hudby ai. Autori stránok nenesú ziadnu zodpovednost za zverejnené odkazy, komentáre a obsah súborov. Vsetky komentáre, odkazy, súbory ktoré by svojou povahou mohli byt v rozpore zo zákonmi sem vkladáte na vlastnú zodpovednost. Autori stránok si vyhradzujú právo cenzúry odkazov, komentárov príp. súborov, ktoré by svojou povahou mohli byt v rozpore zo zákonmi a dobrými mravmi. Dodrzujte pravidlá!





    0
    sezeno
    Ratio 0.87

    VIP

    15/09/2022 20.34.55
    Další díl prosím 😊


    Back

    Na serveru se nenalézají zádne soubory. Za odkazy jsou výhradně zodpovědní uzivatelé a návstěvníci tohoto trackeru. Administrátor není zodpovědný za pridaný obsah ani za skody zpusobené uzivateli. Nesmíte pouzívat tuto webovou stránku pro distribuovaní nebo download zádného materiálu pokud nemáte povolení od príslusného vlastníka práv. Uzivatelé jsou zodpovědní za dodrzování těchto pravidel a podmínek. Owner má právo kdykoliv změnit pravidla tohoto trackeru.

    [ Script trval: 0.048 sec. ] - [ GZIP: enabled ]
    Je zhruba 17:00
    memcache

    TOPlist