Tvoj účet nieje VIP.
Preto sú tvoje funkcie a možnosti značne obmedzené.
Pre aktiváciu VIP klikni sem.

Ronja dcera loupeznika / Ronja Rovardotter (1984)(CZ) = CSFD 83% | SkTorrent.eu

Cz-SkTorrent open Tracker, na volné zdielanie súborov. Pridajte sa k nasej komunite a získajte pristup k tisícom torrentov.

  • vysoká rýchlost
  • úplne zdarma
  • prevazne Slovenska a Ceska scena
  • ste tu s nami uz 5 rokov - Dakujeme
  • Vitaj Guest (Login) Ako stahovat
    torrenty?
    Torrenty:
    v1 textová
    v2 obrázková
    v3 online filmy
    Ako sa stat
    Uploaderom
    Online
    Filmy
    Forum
    Pravidlá
    BitTorrent
    klient
    Meno: Heslo:
    Zaregistrovat
    Po zaregistrovaní mozte volne stahovat
    Zabudol som heslo

    Torrent's details
    Ronja dcera loupeznika / Ronja Rovardotter (1984)(CZ) = CSFD 83% Názov:Ronja dcera loupeznika / Ronja Rovardotter (1984)(CZ) = CSFD 83% Hodnocení: Stiahnut
    Pozriet Online
    Kategória:Filmy CZ/SK dabing Velikost:1.5 GB BitTorrent klient
    Pridaný: Súbory:
    Skontrolován:2018-11-28 Peerov:16 (Seed: 16, Leech: 0)
    Zaner:Dobrodruzny,Pohadka,Rodinny,Romanticky Uploader:Uvidis, az ked budes
    VIP
    Kúp nám Pivo 1,10€

    Kúp nám Pivo
    Podporte nas na Facebooku !
    Pridaj do zalozky
    Pridaj do zalozky





    Jazyk: Český
    Titulky: Ne
    Kvalita zvuku: MP3, 2 channels, 192 Kbps
    Kvalita videa: DivX 5, 704x304, 1 643 Kbps
    Rok vydání: 1984
    Délka: 1:58:52
    CSFD: http://www.csfd.cz/film/37754-ronja-dcera-loupeznika/
    Žánr: Dobrodružný / Rodinný / Romantický / Pohádka




    Film na motivy knihy Astrid Lingrenové

    Popis filmu

    Ronja se narodila za jedné velice bouřlivé noci loupežnickému vůdci Mattisovi. Za té bouřky hrom uhodí do Mattisova hradu a rozlomí ho napůl. Po letech se v druhé půlce hradu usadí nepřátelská banda loupežníků s vůdcem Borkou. Tomu se tu stejnou noc jako Mattisovi narodil syn Birk. Birk se seznámí s Ronjou a stávají se z nich nejlepší přátelé. Sváry mezi oběma tlupami ale pokračují, a tak se děti rozhodnou, že utečou. Mattis řekne, že Ronja už není jeho dcera a uzavře se do sebe. Birk s Ronjou žijí v jeskyni v lese, dokud nepřijde zima. Pak se objeví Mattis a požádá ji o odpuštění. Oba dva se vrátí domů. Obě loupežnické bandy se spojí a uspořádají hon na vojáky, kteří je v lese ohrožují. Nakonec se rozhodnou, že se spojí napořád a Mattis s Borkou svedou souboj o vůdcovství... A kdo vyhraje? Nechte se překvapit...






    Screen






    Media InfoGeneral
    Format: AVI
    Format/Info: Audio Video Interleave
    File size: 1.53 GiB
    Duration: 1h 58mn
    Overall bit rate: 1 844 Kbps

    Video
    ID: 0
    Format: MPEG-4 Visual
    Format profile: Simple@L1
    Format settings, BVOP: No
    Format settings, QPel: No
    Format settings, GMC: No warppoints
    Format settings, Matrix: Default (H.263)
    Codec ID: DX50
    Codec ID/Hint: DivX 5
    Duration: 1h 58mn
    Bit rate: 1 643 Kbps
    Width: 704 pixels
    Height: 304 pixels
    Display aspect ratio: 2.35:1
    Frame rate: 25.000 fps
    Color space: YUV
    Chroma subsampling: 4:2:0
    Bit depth: 8 bits
    Scan type: Progressive
    Compression mode: Lossy
    Bits/(Pixel*Frame): 0.307
    Stream size: 1.36 GiB (89%)
    Writing library: Lavc52.0.0

    Audio
    ID: 1
    Format: MPEG Audio
    Format version: Version 1
    Format profile: Layer 3
    Mode: Joint stereo
    Mode extension: MS Stereo
    Codec ID: 55
    Codec ID/Hint: MP3
    Duration: 1h 58mn
    Bit rate mode: Constant
    Bit rate: 192 Kbps
    Channel(s): 2 channels
    Sampling rate: 48.0 KHz
    Compression mode: Lossy
    Stream size: 163 MiB (10%)
    Alignment: Aligned on interleaves
    Interleave, duration: 40 ms (1.00 video frame)







    Upozornenie:
    Ziadny zo zobrazených súborov sa nenachádza na tomto serveri. Server slúzi len k síreniu vlastnorucne vytvorených aplikácií, videí, hudby ai. Autori stránok nenesú ziadnu zodpovednost za zverejnené odkazy, komentáre a obsah súborov. Vsetky komentáre, odkazy, súbory ktoré by svojou povahou mohli byt v rozpore zo zákonmi sem vkladáte na vlastnú zodpovednost. Autori stránok si vyhradzujú právo cenzúry odkazov, komentárov príp. súborov, ktoré by svojou povahou mohli byt v rozpore zo zákonmi a dobrými mravmi. Dodrzujte pravidlá!





    0
    8CZ8

    VIP
    28/11/2018 21.32.28
    Odpovedat

    prosím seed diky

    0
    JanaDobřemyslová

    Member+
    05/03/2017 06.57.46
    Odpovedat

    prosím o  puštění stahování díky


    Back

    Na serveru se nenalézají zádne soubory. Za odkazy jsou výhradně zodpovědní uzivatelé a návstěvníci tohoto trackeru. Administrátor není zodpovědný za pridaný obsah ani za skody zpusobené uzivateli. Rozsirovat stránku nebo její obsah bez souhlasu ownera je zakázano. Nesmíte pouzívat tuto webovou stránku pro distribuovaní nebo download zádného materiálu pokud nemáte povolení od príslusného vlastníka práv. Uzivatelé jsou zodpovědní za dodrzování těchto pravidel a podmínek. Owner má právo kdykoliv změnit pravidla tohoto trackeru.

    [ Script trval: 0.021 sec. ] - [ GZIP: enabled ]
    BtiTracker (1.4.8) by Btiteam
    Je zhruba 23:04

    TOPlist