Tvoj účet nieje VIP.
Preto sú tvoje funkcie a možnosti značne obmedzené.
Pre aktiváciu VIP klikni sem.

Roswell (1999–2002)(480p)(CZ dabing) = CSFD 61% | SkTorrent.eu

Cz-SkTorrent open Tracker, na volné zdieľanie súborov. Pridajte sa k našej komunite a získajte prístup k tisícom torrentov.

  • vysoká rýchlosť
  • úplne zdarma
  • prevažne Slovenská a Česká scéna
  • ste tu s nami už 10 rokov - Ďakujeme
  • Vitaj Guest (Login) Ako stahovat
    torrenty?
    Torrenty:
    v1 textová
    v2 obrázková
    Ako sa stat
    Uploaderom
    Online
    Filmy
    Forum
    Pravidlá
    SkTSocial
    BitTorrent
    klient
    Meno: Heslo:
    Zaregistrovat
    Po zaregistrovaní mozte volne stahovat
    Zabudol som heslo

    Roswell (1999–2002)(480p)(CZ dabing) = CSFD 61% Názov:Roswell (1999–2002)(480p)(CZ dabing) = CSFD 61% Hodnocení: Stiahnut
    Pozriet Online
    Kategória:Seriál - Velikost:38.8 GB BitTorrent klient
    Pridaný: Súbory:
    Skontrolován:2024-02-12 Peerov:13 (Seed: 12, Leech: 1)
    Zaner:Drama,Romanticky,Sci-Fi Uploader:Uvidis, az ked budes
    VIP
    Kúp nám Pivo 1,10€

    Kúp nám Pivo

    Pridaj do zalozky
    Pridaj do zalozky









    Drama / Sci-Fi / Romantický

    USA, (1999–2002), 43 h 24 min (Minutáž: 41–44 min)

    Tvůrci: Jason Katims
    Režie: Allan Kroeker, David Semel, Jefery Levy, James A. Contner
    Scénář: Jason Katims, Ronald D. Moore, Garrett Lerner
    Kamera: John S. Bartley, Rodney Charters, Jamie Barber, Michael Bonvillain
    Hudba: Dido, Joseph Williams, W.G. Snuffy Walden
    Hrají: Shiri Appleby, Jason Behr, (Katherine Heigl - ), Majandra Delfino, Brendan Fehr, Nick Wechsler, William Sadler, Colin Hanks, Emilie de Ravin
    Produkce: Gretchen J. Berg, Aaron Harberts, Carol Dunn Trussell, John Heath, Fred Golan
    Střih: Victor Du Bois, Robert Frazen, Todd C. Ramsay, Patrick McMahon, Jill Savitt, Stephen Mark, Kaja Fehr, Paul Trejo, Leo Trombetta, Peter B. Ellis, Scott Gamzon, Chad Mochrie
    Zvuk: David John West, Pete Elia, Thierry J. Couturier
    Scénografie: Dawn Snyder, Vincent Jefferds, Susan Benjamin, Wanda 'Beau' Peterson
    Masky: Donna J. Anderson
    Kostýmy: Laura Goldsmith, Mimi Melgaard, Jill M. Ohanneson

    Náhled







    V městečku Roswell se dějí záhadné věci. Jen studentka Liz zná pravdu. Náhodně objevila, že její spolužák, do kterého se zamilovala, je mimozemšťan. A určitě není sám!




    General
    Complete name               : H:\Serialy\Roswell 480p CZ dab\1 serie\Roswell 01x01 Pilot.avi
    Format                      : AVI
    Format/Info                 : Audio Video Interleave
    File size                   : 659 MiB
    Duration                    : 42 min 13 s
    Overall bit rate            : 2 183 kb/s
    Writing application         : Lavf56.40.101

    Video
    ID                          : 0
    Format                      : AVC
    Format/Info                 : Advanced Video Codec
    Format profile              : Main@L3
    Format settings             : 4 Ref Frames
    Format settings, CABAC      : No
    Format settings, Reference  : 4 frames
    Codec ID                    : H264
    Duration                    : 42 min 13 s
    Bit rate                    : 2 000 kb/s
    Width                       : 640 pixels
    Height                      : 480 pixels
    Display aspect ratio        : 16:9
    Frame rate mode             : Variable
    Frame rate                  : 23.976 (24000/1001) FPS
    Color space                 : YUV
    Chroma subsampling          : 4:2:0
    Bit depth                   : 8 bits
    Scan type                   : Progressive
    Bits/(Pixel*Frame)          : 0.272
    Stream size                 : 598 MiB (91%)
    Writing library             : x264 core 146
    Encoding settings           : cabac=0 / ref=1 / deblock=1:0:0 / analyse=0x1:0x111 / me=umh / subme=1 / psy=1 / psy_rd=1.00:0.00 / mixed_ref=0 / me_range=12 / chroma_me=1 / trellis=0 / 8x8dct=0 / cqm=0 / deadzone=21,11 / fast_pskip=1 / chroma_qp_offset=0 / threads=2 / lookahead_threads=1 / sliced_threads=0 / nr=0 / decimate=1 / interlaced=0 / bluray_compat=0 / constrained_intra=0 / bframes=2 / b_pyramid=2 / b_adapt=1 / b_bias=0 / direct=1 / weightb=1 / open_gop=0 / weightp=2 / keyint=18 / keyint_min=10 / scenecut=40 / intra_refresh=0 / rc_lookahead=18 / rc=abr / mbtree=1 / bitrate=2000 / ratetol=1.0 / qcomp=0.60 / qpmin=6 / qpmax=51 / qpstep=4 / ip_ratio=1.41 / aq=1:1.00

    Audio
    ID                          : 1
    Format                      : MPEG Audio
    Format version              : Version 1
    Format profile              : Layer 3
    Format settings             : Joint stereo / MS Stereo
    Codec ID                    : 55
    Codec ID/Hint               : MP3
    Duration                    : 42 min 13 s
    Bit rate mode               : Constant
    Bit rate                    : 192 kb/s
    Channel(s)                  : 2 channels
    Sampling rate               : 48.0 kHz
    Compression mode            : Lossy
    Stream size                 : 58.0 MiB (9%)
    Alignment                   : Aligned on interleaves
    Interleave, duration        : 24  ms (0.58 video frame)
    Writing library             : LAME3.99.5













    doboska, bodrobodro, Ondras66, suzyyona, tibie, lalik, martynko007, Harper66, HonzaKOBSA63, matie, nemesis0709, alesek2012,

    + Pridaj vlastnu verziu tohto torrentu +


    Upozornenie:
    Ziadny zo zobrazených súborov sa nenachádza na tomto serveri. Server slúzi len k síreniu vlastnorucne vytvorených aplikácií, videí, hudby ai. Autori stránok nenesú ziadnu zodpovednost za zverejnené odkazy, komentáre a obsah súborov. Vsetky komentáre, odkazy, súbory ktoré by svojou povahou mohli byt v rozpore zo zákonmi sem vkladáte na vlastnú zodpovednost. Autori stránok si vyhradzujú právo cenzúry odkazov, komentárov príp. súborov, ktoré by svojou povahou mohli byt v rozpore zo zákonmi a dobrými mravmi. Dodrzujte pravidlá!





    0
    matie
    Ratio 0.45

    Clen

    12/02/2024 22.26.19
    Stiahnute....vyborne....velmi pekne dakujem
    Uploader
    12/02/2024 16.09.19
    Obnoveno

    0
    matie
    Ratio 0.45

    Clen

    12/02/2024 14.02.54
    Cawte, predtym ma nikto nevypocul tak skusam znova. Seed pls

    0
    matie
    Ratio 0.45

    Clen

    29/12/2023 18.39.43
    Ahoj, moze niekto seed pls? Dakujem

    2
    raji
    Ratio 0.61

    VIP

    21/01/2023 14.28.35
    Ahoj, poprosím o SEED

    1
    Hunter99
    Ratio 0.65

    Clen

    26/07/2021 08.53.18
    To by si byl KING, kdyby si sehnal dvd verzi, kde je lepší kvalita a k tomu přidal cz dabing!

    0
    kebabdoruky1
    Ratio 0.83

    Clen

    23/07/2021 10.26.10
    prečo to ma tolko GB pri take kvalite?  


    --------------
    >> 23/07/2021 10.35.18
    UPLOADER: Čau , protože to mělo cca 980mb na díl takže sem to snížil.


    --------------
    >> 23/07/2021 18.34.01
    Harper66: Jak snížil, kvalitu obrazu nebo jak?


    --------------
    >> 23/07/2021 21.19.52
    UPLOADER: Ne kvalitu, jen velikost a formát aby to fungovalo na New TV.

    4
    Harper66
    Ratio 3.02

    Member+

    22/07/2021 18.26.32
    Páni taková nostalgie. V lepším jak 480p to asi není natočený co?  


    --------------
    >> 22/07/2021 21.52.40
    UPLOADER: Kdybych to v lepší kvalitě našel nahodil bych , ale toto je jediná co sem sehnal , pořád lepší jak nic.


    --------------
    >> 23/07/2021 00.01.43
    Harper66: Díval jsem se, že se dá koupit na DVD, takže teoreticky by seriál měl být aspoň 720p. Leda sehnat někde ENG verzi a třeba tento cz dabing tam přidat, aby seděl.  


    --------------
    >> 23/07/2021 00.29.13
    UPLOADER: Je to možné , pokud chceš můžeš to sám zpracovat Já osobně jen stáhl a vše ve stejné kvalitě převedl na formát pro new TV , nic víc


    Back

    Na serveru se nenalézají zádne soubory. Za odkazy jsou výhradně zodpovědní uzivatelé a návstěvníci tohoto trackeru. Administrátor není zodpovědný za pridaný obsah ani za skody zpusobené uzivateli. Nesmíte pouzívat tuto webovou stránku pro distribuovaní nebo download zádného materiálu pokud nemáte povolení od príslusného vlastníka práv. Uzivatelé jsou zodpovědní za dodrzování těchto pravidel a podmínek. Owner má právo kdykoliv změnit pravidla tohoto trackeru.

    [ Script trval: 0.136 sec. ] - [ GZIP: enabled ]
    Je zhruba 18:25
    sql

    TOPlist