Tvoj účet nieje VIP.
Preto sú tvoje funkcie a možnosti značne obmedzené.
Pre aktiváciu VIP klikni sem.

Rychle a zbesile 9 / F9 (2021)(1080p)(EN/2xCZ) = CSFD 44% | SkTorrent.eu

Cz-SkTorrent open Tracker, na volné zdielanie súborov. Pridajte sa k nasej komunite a získajte pristup k tisícom torrentov.

  • vysoká rýchlost
  • úplne zdarma
  • prevazne Slovenska a Ceska scena
  • ste tu s nami uz 5 rokov - Dakujeme
  • Vitaj Guest (Login) Ako stahovat
    torrenty?
    Torrenty:
    v1 textová
    v2 obrázková
    v3 online filmy
    Ako sa stat
    Uploaderom
    Online
    Filmy
    Forum
    Pravidlá
    BitTorrent
    klient
    Meno: Heslo:
    Zaregistrovat
    Po zaregistrovaní mozte volne stahovat
    Zabudol som heslo

    Torrent's details
    Rychle a zbesile 9 / F9 (2021)(1080p)(EN/2xCZ) = CSFD 44% Názov:Rychle a zbesile 9 / F9 (2021)(1080p)(EN/2xCZ) = CSFD 44% Hodnocení: Stiahnut
    Pozriet Online
    Kategória:Filmy CZ/SK dabing Velikost:2.7 GB BitTorrent klient
    Pridaný: Súbory:
    Skontrolován:2021-10-07 Peerov:33 (Seed: 33, Leech: 0)
    Zaner:Akcni,Dobrodruzny,Krimi,Thriller Uploader:Uvidis, az ked budes
    VIP
    Kúp nám Pivo 1,10€

    Kúp nám Pivo
    Podporte nas na Facebooku !
    Pridaj do zalozky
    Pridaj do zalozky








    Rychle a zbesile 9 - Fast & Furious 9 (2021)
    BluRay rip 2xCZ a púvodní EN dabing + CZ/EN tit

                   










    Akční / Dobrodružný / Krimi / Thriller
    USA, 2021, 145 min
    Režie: Justin Lin
    Scénář: Daniel Casey, Justin Lin
    Kamera: Stephen F. Windon
    Hudba: Brian Tyler
    Hrají: Vin Diesel, (Michelle Rodriguez - ), Jordana Brewster, Tyrese Gibson, Ludacris, Nathalie Emmanuel, John Cena, (Charlize Theron - ), Thue Ersted Rasmussen




    Dominic Toretto (Vin Diesel) si myslel, že si konečně bude moci začít užívat klidný život s Letty ((Michelle Rodriguez - )) a synem Brianem, jenže pak se ozvala jeho minulost. V týmu lumpů, kteří se rozhodli ovládnout svět, figuruje i člověk, který je stejně odvážný a nebezpečný jako Dom. A taky skvěle řídí. Koneckonců je to jeho bratr Jakob (John Cena). Rozešli se ve zlém po smrti otce a je jasné, že pokud se jejich cesty znovu zkříží, bude je to asi oba hodně bolet. A protože Jakobovi pomáhá s realizací jeho plánů geniální hackerka Cipher ((Charlize Theron - )), se kterou jsme se seznámili v předchozím díle, musí Dominic tváří v tvář přesile dát znovu dohromady „rodinu“ rychlých a zběsilých řidičů. S nimi se vydá na neuvěřitelnou štreku, která vede přes Londýn, Tokio, středoamerickou džungli a historické uličky Edinburghu až do Ázerbájdžánu. Tam všude budou porušovat dopravní předpisy a fyzikální zákony a pokoušet se přitom zachránit svět.








    Formát                                   : Matroska
    Format version                           : Version 4
    Velikost souboru                         : 2,67 GiB
    Duration                                 : 2 h 22 min
    Celkový BitRate                          : 2 677 kb/s
    Název filmu                              : Rychle a zběsile 9 - Fast & Furious 9 (2021)(BluRay)(HEVC)(1080p)(EN-2xCZ) PHDTeam 2021
    Encoded date                             : UTC 2021-10-07 19:37:43
    Použitý software                         : mkvmerge v61.0.0 ('So') 64-bit
    Enkódoval                                : libebml v1.4.2 + libmatroska v1.6.4
    Obal                                     : Yes
    Attachments                              : cover.jpg / Cover-EN-original.jpg / Cover-EN-original-F9.jpg / Cover-EN-F9.jpg / Cover-SK.jpg / Cover-CZ.jpg

    Video
    ID                                       : 1
    Formát                                   : HEVC
    Formát/Info                              : High Efficiency Video Coding
    Format profile                           : Main 10@L4@Main
    Codec ID                                 : V_MPEGH/ISO/HEVC
    Duration                                 : 2 h 22 min
    Bit rate                                 : 1 711 kb/s
    Šířka                                    : 1 920pixely
    Výška                                    : 800pixely
    Poměr stran                              : 2,40:1
    Frame rate mode                          : Constant
    Frame rate                               : 23,976 (24000/1001) FPS
    Color space                              : YUV
    Chroma subsampling                       : 4:2:0
    Bit depth                                : 10 bits
    Bits/(Pixel*Frame)                       : 0.046
    Stream size                              : 1,71 GiB (64%)
    Titul                                    : Rychle a zběsile 9 - Fast & Furious 9 (2021)(BluRay)(HEVC)(1080p)(EN-2xCZ) PHDTeam
    Default                                  : Ano
    Forced                                   : Ne
    Color range                              : Limited
    Color primaries                          : BT.709
    Transfer characteristics                 : BT.709
    Matrix coefficients                      : BT.709

    Audio #1
    ID                                       : 2
    Formát                                   : AC-3
    Formát/Info                              : Audio Coding 3
    Commercial name                          : Dolby Digital
    Codec ID                                 : A_AC3
    Duration                                 : 2 h 22 min
    Bit rate mode                            : Constant
    Bit rate                                 : 448 kb/s
    Kanál(y)                                 : 6 kanály
    Channel layout                           : L R C LFE Ls Rs
    Sampling rate                            : 48,0 kHz
    Frame rate                               : 31,250 FPS (1536 SPF)
    Compression mode                         : Lossy
    Stream size                              : 458 MiB (17%)
    Titul                                    : EN AC3 DD 5.1
    Jazyk                                    : English
    Service kind                             : Complete Main
    Default                                  : Ne
    Forced                                   : Ne

    Audio #2
    ID                                       : 3
    Formát                                   : AC-3
    Formát/Info                              : Audio Coding 3
    Commercial name                          : Dolby Digital
    Codec ID                                 : A_AC3
    Duration                                 : 2 h 22 min
    Bit rate mode                            : Constant
    Bit rate                                 : 256 kb/s
    Kanál(y)                                 : 6 kanály
    Channel layout                           : L R C LFE Ls Rs
    Sampling rate                            : 48,0 kHz
    Frame rate                               : 31,250 FPS (1536 SPF)
    Compression mode                         : Lossy
    Stream size                              : 262 MiB (10%)
    Titul                                    : CZ AC3 DD 5.1
    Jazyk                                    : Czech
    Service kind                             : Complete Main
    Default                                  : Ano
    Forced                                   : Ne

    Audio #3
    ID                                       : 4
    Formát                                   : AC-3
    Formát/Info                              : Audio Coding 3
    Commercial name                          : Dolby Digital
    Codec ID                                 : A_AC3
    Duration                                 : 2 h 22 min
    Bit rate mode                            : Constant
    Bit rate                                 : 256 kb/s
    Kanál(y)                                 : 2 kanály
    Channel layout                           : L R
    Sampling rate                            : 44,1 kHz
    Frame rate                               : 28,711 FPS (1536 SPF)
    Bit depth                                : 32 bits
    Compression mode                         : Lossy
    Video delay                              : 1 s 494 ms
    Stream size                              : 262 MiB (10%)
    Titul                                    : CZ AC3 DD 2.0
    Jazyk                                    : Czech
    Service kind                             : Complete Main
    Default                                  : Ano
    Forced                                   : Ano

    Text #1
    ID                                       : 5
    Formát                                   : UTF-8
    Codec ID                                 : S_TEXT/UTF8
    Codec ID/Info                            : UTF-8 Plain Text
    Duration                                 : 2 h 15 min
    Bit rate                                 : 0 b/s
    Count of elements                        : 19
    Stream size                              : 405 Bytes (0%)
    Titul                                    : Czech Forced
    Jazyk                                    : Czech
    Default                                  : Ano
    Forced                                   : Ano

    Text #2
    ID                                       : 6
    Formát                                   : UTF-8
    Codec ID                                 : S_TEXT/UTF8
    Codec ID/Info                            : UTF-8 Plain Text
    Duration                                 : 2 h 22 min
    Bit rate                                 : 34 b/s
    Count of elements                        : 1136
    Stream size                              : 35,6 KiB (0%)
    Titul                                    : Czech Full
    Jazyk                                    : Czech
    Default                                  : Ne
    Forced                                   : Ne

    Text #3
    ID                                       : 7
    Formát                                   : UTF-8
    Codec ID                                 : S_TEXT/UTF8
    Codec ID/Info                            : UTF-8 Plain Text
    Duration                                 : 2 h 17 min
    Bit rate                                 : 42 b/s
    Count of elements                        : 1585
    Stream size                              : 42,8 KiB (0%)
    Titul                                    : English Full
    Jazyk                                    : English
    Default                                  : Ne
    Forced                                   : Ne









    ONLINE

    CZ dabing






    CZ titulky









    turista, Benysex, Freezman33, tibie, chumpi, Karel001, PanDrtikol, marki8179, lukas-danek,

    + Pridaj vlastnu verziu tohto torrentu +


    Upozornenie:
    Ziadny zo zobrazených súborov sa nenachádza na tomto serveri. Server slúzi len k síreniu vlastnorucne vytvorených aplikácií, videí, hudby ai. Autori stránok nenesú ziadnu zodpovednost za zverejnené odkazy, komentáre a obsah súborov. Vsetky komentáre, odkazy, súbory ktoré by svojou povahou mohli byt v rozpore zo zákonmi sem vkladáte na vlastnú zodpovednost. Autori stránok si vyhradzujú právo cenzúry odkazov, komentárov príp. súborov, ktoré by svojou povahou mohli byt v rozpore zo zákonmi a dobrými mravmi. Dodrzujte pravidlá!





    1
    Harper66
    Ratio 0.5

    Clen

    11/10/2021 01.02.39
    U té 24GB verze dabing sedí ale tady ne, nemůžeš sem dát novou verzi kde to bude sedět na pusu?

    0
    Harper66
    Ratio 0.5

    Clen

    10/10/2021 18.04.09
    Cz dabing a obraz nesedi bohuzel! Muzes s tim neco udelat?


    Back

    Na serveru se nenalézají zádne soubory. Za odkazy jsou výhradně zodpovědní uzivatelé a návstěvníci tohoto trackeru. Administrátor není zodpovědný za pridaný obsah ani za skody zpusobené uzivateli. Rozsirovat stránku nebo její obsah bez souhlasu ownera je zakázano. Nesmíte pouzívat tuto webovou stránku pro distribuovaní nebo download zádného materiálu pokud nemáte povolení od príslusného vlastníka práv. Uzivatelé jsou zodpovědní za dodrzování těchto pravidel a podmínek. Owner má právo kdykoliv změnit pravidla tohoto trackeru.

    [ Script trval: 0.025 sec. ] - [ GZIP: enabled ]
    Je zhruba 07:55
    sql

    TOPlist