Tvoj účet nieje VIP.
Preto sú tvoje funkcie a možnosti značne obmedzené.
Pre aktiváciu VIP klikni sem.

Rychle a zbesile 9 / F9 (2021)(BluRay)(UHD 4K 2160p HEVC)(3xEN/3xCZ) = CSFD 44% | SkTorrent.eu

Cz-SkTorrent open Tracker, na volné zdielanie súborov. Pridajte sa k nasej komunite a získajte pristup k tisícom torrentov.

  • vysoká rýchlost
  • úplne zdarma
  • prevazne Slovenska a Ceska scena
  • ste tu s nami uz 5 rokov - Dakujeme
  • Vitaj Guest (Login) Ako stahovat
    torrenty?
    Torrenty:
    v1 textová
    v2 obrázková
    v3 online filmy
    Ako sa stat
    Uploaderom
    Online
    Filmy
    Forum
    Pravidlá
    BitTorrent
    klient
    Meno: Heslo:
    Zaregistrovat
    Po zaregistrovaní mozte volne stahovat
    Zabudol som heslo

    Torrent's details
    Rychle a zbesile 9 / F9 (2021)(BluRay)(UHD 4K 2160p HEVC)(3xEN/3xCZ) = CSFD 44% Názov:Rychle a zbesile 9 / F9 (2021)(BluRay)(UHD 4K 2160p HEVC)(3xEN/3xCZ) = CSFD 44% Hodnocení:N/A Stiahnut
    Pozriet Online
    Kategória:UHD Filmy Velikost:19.5 GB BitTorrent klient
    Pridaný: Súbory:
    Skontrolován:2021-10-07 Peerov:11 (Seed: 11, Leech: 0)
    Zaner:Akcni,Dobrodruzny,Krimi,Thriller Uploader:Uvidis, az ked budes
    VIP
    Kúp nám Pivo 1,10€

    Kúp nám Pivo
    Podporte nas na Facebooku !
    Pridaj do zalozky
    Pridaj do zalozky








    Rychle a zbesile 9 - Fast & Furious 9 (2021)
    BluRay rip 3xCZ a púvodní 3xEN dabing + CZ/EN tit

                   










    Akční / Dobrodružný / Krimi / Thriller
    USA, 2021, 145 min
    Režie: Justin Lin
    Scénář: Daniel Casey, Justin Lin
    Kamera: Stephen F. Windon
    Hudba: Brian Tyler
    Hrají: Vin Diesel, (Michelle Rodriguez - ), Jordana Brewster, Tyrese Gibson, Ludacris, Nathalie Emmanuel, John Cena, (Charlize Theron - ), Thue Ersted Rasmussen




    Dominic Toretto (Vin Diesel) si myslel, že si konečně bude moci začít užívat klidný život s Letty ((Michelle Rodriguez - )) a synem Brianem, jenže pak se ozvala jeho minulost. V týmu lumpů, kteří se rozhodli ovládnout svět, figuruje i člověk, který je stejně odvážný a nebezpečný jako Dom. A taky skvěle řídí. Koneckonců je to jeho bratr Jakob (John Cena). Rozešli se ve zlém po smrti otce a je jasné, že pokud se jejich cesty znovu zkříží, bude je to asi oba hodně bolet. A protože Jakobovi pomáhá s realizací jeho plánů geniální hackerka Cipher ((Charlize Theron - )), se kterou jsme se seznámili v předchozím díle, musí Dominic tváří v tvář přesile dát znovu dohromady „rodinu“ rychlých a zběsilých řidičů. S nimi se vydá na neuvěřitelnou štreku, která vede přes Londýn, Tokio, středoamerickou džungli a historické uličky Edinburghu až do Ázerbájdžánu. Tam všude budou porušovat dopravní předpisy a fyzikální zákony a pokoušet se přitom zachránit svět.








    Formát                                   : Matroska
    Format version                           : Version 4
    Velikost souboru                         : 19,5 GiB
    Duration                                 : 2 h 22 min
    Overall bit rate mode                    : Variable
    Celkový BitRate                          : 19,5 Mb/s
    Název filmu                              : Rychle a zběsile 9 - Fast & Furious 9 (2021)(BluRay)(UHD 4K 2160p HEVC)(3xEN-3xCZ) PHDTeam 2021
    Encoded date                             : UTC 2021-10-07 19:42:38
    Použitý software                         : mkvmerge v61.0.0 ('So') 64-bit
    Enkódoval                                : libebml v1.4.2 + libmatroska v1.6.4
    Obal                                     : Yes
    Attachments                              : cover.jpg / Cover-EN-original.jpg / Cover-EN-original-F9.jpg / Cover-EN-F9.jpg / Cover-SK.jpg / Cover-CZ.jpg

    Video
    ID                                       : 1
    Formát                                   : HEVC
    Formát/Info                              : High Efficiency Video Coding
    Format profile                           : Main 10@L5@High
    HDR format                               : SMPTE ST 2086, HDR10 compatible
    Codec ID                                 : V_MPEGH/ISO/HEVC
    Duration                                 : 2 h 22 min
    Bit rate                                 : 14,3 Mb/s
    Šířka                                    : 3 836pixely
    Výška                                    : 1 600pixely
    Poměr stran                              : 2,40:1
    Original display aspect ratio            : 2,40:1
    Frame rate mode                          : Constant
    Frame rate                               : 23,976 FPS
    Color space                              : YUV
    Chroma subsampling                       : 4:2:0 (Type 2)
    Bit depth                                : 10 bits
    Bits/(Pixel*Frame)                       : 0.097
    Stream size                              : 14,3 GiB (74%)
    Titul                                    : Rychle a zběsile 9 - Fast & Furious 9 (2021)(BluRay)(UHD 4K 2160p HEVC)(3xEN-3xCZ) PHDTeam
    Default                                  : Ano
    Forced                                   : Ne
    Color range                              : Limited
    Color primaries                          : BT.2020
    Transfer characteristics                 : PQ
    Matrix coefficients                      : BT.2020 non-constant
    Mastering display color primaries        : Display P3
    Mastering display luminance              : min: 0.0050 cd/m2, max: 4000 cd/m2
    Maximum Content Light Level              : 1002 cd/m2
    Maximum Frame-Average Light Level        : 701 cd/m2

    Audio #1
    ID                                       : 2
    Formát                                   : MLP FBA 16-ch
    Formát/Info                              : Meridian Lossless Packing FBA with 16-channel presentation
    Commercial name                          : Dolby TrueHD with Dolby Atmos
    Codec ID                                 : A_TRUEHD
    Duration                                 : 2 h 22 min
    Bit rate mode                            : Variable
    Bit rate                                 : 3 102 kb/s
    Maximum bit rate                         : 4 590 kb/s
    Kanál(y)                                 : 8 kanály
    Channel layout                           : L R C LFE Ls Rs Lb Rb
    Sampling rate                            : 48,0 kHz
    Frame rate                               : 1 200,000 FPS (40 SPF)
    Compression mode                         : Lossless
    Stream size                              : 3,10 GiB (16%)
    Titul                                    : EN TrueHD Atmos
    Jazyk                                    : English
    Default                                  : Ne
    Forced                                   : Ne
    Number of dynamic objects                : 11
    Bed channel count                        : 1 kanál
    Bed channel configuration                : LFE

    Audio #2
    ID                                       : 3
    Formát                                   : AC-3
    Formát/Info                              : Audio Coding 3
    Commercial name                          : Dolby Digital
    Codec ID                                 : A_AC3
    Duration                                 : 2 h 22 min
    Bit rate mode                            : Constant
    Bit rate                                 : 448 kb/s
    Kanál(y)                                 : 6 kanály
    Channel layout                           : L R C LFE Ls Rs
    Sampling rate                            : 48,0 kHz
    Frame rate                               : 31,250 FPS (1536 SPF)
    Compression mode                         : Lossy
    Stream size                              : 458 MiB (2%)
    Titul                                    : EN AC3 DD 5.1
    Jazyk                                    : English
    Service kind                             : Complete Main
    Default                                  : Ne
    Forced                                   : Ne

    Audio #3
    ID                                       : 4
    Formát                                   : AC-3
    Formát/Info                              : Audio Coding 3
    Commercial name                          : Dolby Digital
    Codec ID                                 : A_AC3
    Duration                                 : 2 h 22 min
    Bit rate mode                            : Constant
    Bit rate                                 : 256 kb/s
    Kanál(y)                                 : 6 kanály
    Channel layout                           : L R C LFE Ls Rs
    Sampling rate                            : 48,0 kHz
    Frame rate                               : 31,250 FPS (1536 SPF)
    Compression mode                         : Lossy
    Stream size                              : 262 MiB (1%)
    Titul                                    : CZ AC3 DD 5.1
    Jazyk                                    : Czech
    Service kind                             : Complete Main
    Default                                  : Ano
    Forced                                   : Ne

    Audio #4
    ID                                       : 5
    Formát                                   : E-AC-3 JOC
    Formát/Info                              : Enhanced AC-3 with Joint Object Coding
    Commercial name                          : Dolby Digital Plus with Dolby Atmos
    Codec ID                                 : A_EAC3
    Duration                                 : 2 h 22 min
    Bit rate mode                            : Constant
    Bit rate                                 : 768 kb/s
    Kanál(y)                                 : 6 kanály
    Channel layout                           : L R C LFE Ls Rs
    Sampling rate                            : 48,0 kHz
    Frame rate                               : 31,250 FPS (1536 SPF)
    Compression mode                         : Lossy
    Stream size                              : 785 MiB (4%)
    Titul                                    : EN E-AC3 DD 5.1
    Jazyk                                    : English
    Service kind                             : Complete Main
    Default                                  : Ne
    Forced                                   : Ne
    Complexity index                         : 16
    Number of dynamic objects                : 15
    Bed channel count                        : 1 kanál
    Bed channel configuration                : LFE

    Audio #5
    ID                                       : 6
    Formát                                   : AC-3
    Formát/Info                              : Audio Coding 3
    Commercial name                          : Dolby Digital
    Codec ID                                 : A_AC3
    Duration                                 : 2 h 22 min
    Bit rate mode                            : Constant
    Bit rate                                 : 256 kb/s
    Kanál(y)                                 : 2 kanály
    Channel layout                           : L R
    Sampling rate                            : 44,1 kHz
    Frame rate                               : 28,711 FPS (1536 SPF)
    Bit depth                                : 32 bits
    Compression mode                         : Lossy
    Video delay                              : 1 s 494 ms
    Stream size                              : 262 MiB (1%)
    Titul                                    : CZ AC3 DD 2.0
    Jazyk                                    : Czech
    Service kind                             : Complete Main
    Default                                  : Ano
    Forced                                   : Ano

    Audio #6
    ID                                       : 7
    Formát                                   : E-AC-3
    Formát/Info                              : Enhanced AC-3
    Commercial name                          : Dolby Digital Plus
    Codec ID                                 : A_EAC3
    Duration                                 : 2 h 22 min
    Bit rate mode                            : Constant
    Bit rate                                 : 256 kb/s
    Kanál(y)                                 : 6 kanály
    Channel layout                           : L R C LFE Ls Rs
    Sampling rate                            : 48,0 kHz
    Frame rate                               : 31,250 FPS (1536 SPF)
    Compression mode                         : Lossy
    Video delay                              : 1 s 500 ms
    Stream size                              : 262 MiB (1%)
    Titul                                    : CZ  E-AC3 DD 5.1
    Jazyk                                    : Czech
    Service kind                             : Complete Main
    Default                                  : Ano
    Forced                                   : Ne

    +CZ/EN tit aj forced









    ONLINE

    CZ dabing






    CZ titulky









    Tokamak, devil1972, Fester095, radiskp2, DoktorRob, Sorman, miskin,

    + Pridaj vlastnu verziu tohto torrentu +


    Upozornenie:
    Ziadny zo zobrazených súborov sa nenachádza na tomto serveri. Server slúzi len k síreniu vlastnorucne vytvorených aplikácií, videí, hudby ai. Autori stránok nenesú ziadnu zodpovednost za zverejnené odkazy, komentáre a obsah súborov. Vsetky komentáre, odkazy, súbory ktoré by svojou povahou mohli byt v rozpore zo zákonmi sem vkladáte na vlastnú zodpovednost. Autori stránok si vyhradzujú právo cenzúry odkazov, komentárov príp. súborov, ktoré by svojou povahou mohli byt v rozpore zo zákonmi a dobrými mravmi. Dodrzujte pravidlá!


    No comments...


    Back

    Na serveru se nenalézají zádne soubory. Za odkazy jsou výhradně zodpovědní uzivatelé a návstěvníci tohoto trackeru. Administrátor není zodpovědný za pridaný obsah ani za skody zpusobené uzivateli. Rozsirovat stránku nebo její obsah bez souhlasu ownera je zakázano. Nesmíte pouzívat tuto webovou stránku pro distribuovaní nebo download zádného materiálu pokud nemáte povolení od príslusného vlastníka práv. Uzivatelé jsou zodpovědní za dodrzování těchto pravidel a podmínek. Owner má právo kdykoliv změnit pravidla tohoto trackeru.

    [ Script trval: 0.026 sec. ] - [ GZIP: enabled ]
    Je zhruba 08:38
    sql

    TOPlist