Tvoj účet nieje VIP.
Preto sú tvoje funkcie a možnosti značne obmedzené.
Pre aktiváciu VIP klikni sem.

S.W.A.T. - Jednotka rychleho nasazeni / S.W.A.T. (CZ/SK/EN)(1080p)(2003) = CSFD 66% | SkTorrent.eu

Cz-SkTorrent open Tracker, na volné zdielanie súborov. Pridajte sa k nasej komunite a získajte pristup k tisícom torrentov.

  • vysoká rýchlost
  • úplne zdarma
  • prevazne Slovenska a Ceska scena
  • ste tu s nami uz 5 rokov - Dakujeme
  • Vitaj Guest (Login) Ako stahovat
    torrenty?
    Torrenty:
    v1 textová
    v2 obrázková
    Ako sa stat
    Uploaderom
    Online
    Filmy
    Forum
    Pravidlá
    BitTorrent
    klient
    Meno: Heslo:
    Zaregistrovat
    Po zaregistrovaní mozte volne stahovat
    Zabudol som heslo

    S.W.A.T. - Jednotka rychleho nasazeni / S.W.A.T. (CZ/SK/EN)(1080p)(2003) = CSFD 66% Názov:S.W.A.T. - Jednotka rychleho nasazeni / S.W.A.T. (CZ/SK/EN)(1080p)(2003) = CSFD 66% Hodnocení: Stiahnut
    Pozriet Online
    Kategória:Filmy CZ/SK dabing Velikost:2.9 GB BitTorrent klient
    Pridaný: Súbory:
    Skontrolován:2022-09-25 Peerov:20 (Seed: 20, Leech: 0)
    Zaner:Akcni,Krimi,Thriller Uploader:Uvidis, az ked budes
    VIP
    Kúp nám Pivo 1,10€

    Kúp nám Pivo
    Pridaj do zalozky
    Pridaj do zalozky






    S.W.A.T. - Jednotka rychlého nasazení / S.W.A.T. / S.W.A.T. - Jednotka rýchleho nasadenia



    Video: MKV 1080p
    Jazyk: CZ 5.1 DTS / SK 2.0 AC-3 / EN 2.0 AC-3
    Titulky: CZ
    Rok vydání:  USA, 2003
    Délka: 111 min
    Žánr:  Akční / Krimi / Thriller

    Popis:

    Jim Street ((Colin Farrell - )) je příslušníkem elitní policejní jednotky S. W. A. T. v Los Angeles. Na začátku zasahuje v bance proti lupičům, kteří drží rukojmí. Jeho partner Brian Gamble nedělá věci podle předpisů a při záchraně postřelí nejen lupiče, ale i jednu rukojmí, která pak žaluje policii.


    Formát                                   : Matroska
    Format version                           : Version 4
    Velikost souboru                         : 2,94 GiB
    Duration                                 : 1 h 57 min
    Celkový BitRate                          : 3 595 kb/s
    Název filmu                              : S.W.A.T. Jednotka rýchleho nasadenia r.2003 HD (Samuel L. Jackson - ), (Colin Farrell - ), SK, CZ, EN
    Encoded date                             : UTC 2022-09-25 16:55:28
    Použitý software                         : mkvmerge v67.0.0 ('Under Stars') 64-bit
    Enkódoval                                : libebml v1.4.2 + libmatroska v1.6.4

    Video
    ID                                       : 1
    Formát                                   : AVC
    Formát/Info                              : Advanced Video Codec
    Format profile                           : High@L4
    Format settings                          : CABAC / 4 Ref Frames
    Format settings, CABAC                   : Ano
    Format settings, Reference frames        : 4 frames
    Codec ID                                 : V_MPEG4/ISO/AVC
    Duration                                 : 1 h 57 min
    Bit rate                                 : 1 731 kb/s
    Šířka                                    : 1 920pixely
    Výška                                    : 800pixely
    Poměr stran                              : 2,40:1
    Frame rate mode                          : Constant
    Frame rate                               : 23,976 (24000/1001) FPS
    Color space                              : YUV
    Chroma subsampling                       : 4:2:0
    Bit depth                                : 8 bits
    Scan type                                : Progressive
    Bits/(Pixel*Frame)                       : 0.047
    Stream size                              : 1,42 GiB (48%)
    Titul                                    : S.W.A.T.2003.CZ.SK.EN.1080p
    Enkódoval                                : x264 core 120 r2164 da19765
    Nastavení enkoderu                       : cabac=1 / ref=3 / deblock=1:-2:-1 / analyse=0x3:0x113 / me=hex / subme=7 / psy=1 / psy_rd=1.00:0.00 / mixed_ref=1 / me_range=16 / chroma_me=1 / trellis=1 / 8x8dct=1 / cqm=0 / deadzone=21,11 / fast_pskip=1 / chroma_qp_offset=-2 / threads=6 / sliced_threads=0 / nr=0 / decimate=1 / interlaced=0 / bluray_compat=0 / constrained_intra=0 / bframes=3 / b_pyramid=2 / b_adapt=1 / b_bias=0 / direct=1 / weightb=1 / open_gop=0 / weightp=2 / keyint=240 / keyint_min=23 / scenecut=40 / intra_refresh=0 / rc_lookahead=40 / rc=2pass / mbtree=1 / bitrate=1731 / ratetol=1.0 / qcomp=0.60 / qpmin=10 / qpmax=51 / qpstep=4 / cplxblur=20.0 / qblur=0.5 / ip_ratio=1.40 / aq=1:1.00
    Jazyk                                    : English
    Default                                  : Ano
    Forced                                   : Ne

    Audio #1
    ID                                       : 2
    Formát                                   : DTS
    Formát/Info                              : Digital Theater Systems
    Codec ID                                 : A_DTS
    Duration                                 : 1 h 57 min
    Bit rate mode                            : Constant
    Bit rate                                 : 1 413 kb/s
    Kanál(y)                                 : 6 kanály
    Channel layout                           : C L R Ls Rs LFE
    Sampling rate                            : 48,0 kHz
    Frame rate                               : 93,750 FPS (512 SPF)
    Bit depth                                : 16 bits
    Compression mode                         : Lossy
    Stream size                              : 1,16 GiB (39%)
    Titul                                    : DTS 5.1
    Jazyk                                    : Czech
    Default                                  : Ano
    Forced                                   : Ne

    Audio #2
    ID                                       : 3
    Formát                                   : AC-3
    Formát/Info                              : Audio Coding 3
    Commercial name                          : Dolby Digital
    Codec ID                                 : A_AC3
    Duration                                 : 1 h 57 min
    Bit rate mode                            : Constant
    Bit rate                                 : 256 kb/s
    Kanál(y)                                 : 2 kanály
    Channel layout                           : L R
    Sampling rate                            : 48,0 kHz
    Frame rate                               : 31,250 FPS (1536 SPF)
    Compression mode                         : Lossy
    Stream size                              : 215 MiB (7%)
    Titul                                    : AC3 2.0
    Jazyk                                    : Slovak
    Service kind                             : Complete Main
    Default                                  : Ne
    Forced                                   : Ano

    Audio #3
    ID                                       : 4
    Formát                                   : AC-3
    Formát/Info                              : Audio Coding 3
    Commercial name                          : Dolby Digital
    Codec ID                                 : A_AC3
    Duration                                 : 1 h 57 min
    Bit rate mode                            : Constant
    Bit rate                                 : 192 kb/s
    Kanál(y)                                 : 2 kanály
    Channel layout                           : L R
    Sampling rate                            : 48,0 kHz
    Frame rate                               : 31,250 FPS (1536 SPF)
    Compression mode                         : Lossy
    Stream size                              : 161 MiB (5%)
    Titul                                    : AC3 2.0
    Jazyk                                    : English
    Service kind                             : Complete Main
    Default                                  : Ne
    Forced                                   : Ne

    Text
    ID                                       : 5
    Formát                                   : UTF-8
    Codec ID                                 : S_TEXT/UTF8
    Codec ID/Info                            : UTF-8 Plain Text
    Duration                                 : 1 h 50 min
    Bit rate                                 : 47 b/s
    Frame rate                               : 0,190 FPS
    Count of elements                        : 1266
    Stream size                              : 38,8 KiB (0%)
    Titul                                    : SRT
    Jazyk                                    : Czech
    Default                                  : Ne
    Forced                                   : Ne





    ONLINE

    CZ dabing






    SK dabing









    Lee67, Charlesp, mumukuBuco1, Jooozef, Divoch1312, Vili33, Jablonka,

    + Pridaj vlastnu verziu tohto torrentu +


    Upozornenie:
    Ziadny zo zobrazených súborov sa nenachádza na tomto serveri. Server slúzi len k síreniu vlastnorucne vytvorených aplikácií, videí, hudby ai. Autori stránok nenesú ziadnu zodpovednost za zverejnené odkazy, komentáre a obsah súborov. Vsetky komentáre, odkazy, súbory ktoré by svojou povahou mohli byt v rozpore zo zákonmi sem vkladáte na vlastnú zodpovednost. Autori stránok si vyhradzujú právo cenzúry odkazov, komentárov príp. súborov, ktoré by svojou povahou mohli byt v rozpore zo zákonmi a dobrými mravmi. Dodrzujte pravidlá!





    0
    ernest-bodor-bobin
    Ratio 3.69

    Member+

    27/09/2022 04.13.50

    0
    maysa33
    Ratio 4.53

    VIP

    25/09/2022 19.43.01
    Ahoj.Ten DTS CZ je odkial ? lebo mam na BD len 640kb/s


    --------------
    >> 25/09/2022 19.43.58
    UPLOADER: Netuším jen sem to stáhl už takto ... kdybych věděl vysvětlím


    --------------
    >> 25/09/2022 19.53.20
    slnieckozv: softwarovo upravené na DTS, už som to videl a bol som zhrozeny


    --------------
    >> 25/09/2022 20.04.15
    maysa33: OK v pohode


    Back

    Na serveru se nenalézají zádne soubory. Za odkazy jsou výhradně zodpovědní uzivatelé a návstěvníci tohoto trackeru. Administrátor není zodpovědný za pridaný obsah ani za skody zpusobené uzivateli. Nesmíte pouzívat tuto webovou stránku pro distribuovaní nebo download zádného materiálu pokud nemáte povolení od príslusného vlastníka práv. Uzivatelé jsou zodpovědní za dodrzování těchto pravidel a podmínek. Owner má právo kdykoliv změnit pravidla tohoto trackeru.

    [ Script trval: 0.023 sec. ] - [ GZIP: enabled ]
    Je zhruba 17:40
    memcache

    TOPlist