Tvoj účet nieje VIP.
Preto sú tvoje funkcie a možnosti značne obmedzené.
Pre aktiváciu VIP klikni sem.

Saint Seiya - Knights of the Zodiac / Rytiri zverokruhu (S01)(1080p)(AVC)(WebDl)(EN-DE-JP)(CZtit+MultiSUB) = CSFD 57% | SkTorrent.eu

Cz-SkTorrent open Tracker, na volné zdielanie súborov. Pridajte sa k nasej komunite a získajte pristup k tisícom torrentov.

  • vysoká rýchlost
  • úplne zdarma
  • prevazne Slovenska a Ceska scena
  • ste tu s nami uz 5 rokov - Dakujeme
  • Vitaj Guest (Login) Ako stahovat
    torrenty?
    Torrenty:
    v1 textová
    v2 obrázková
    Ako sa stat
    Uploaderom
    Online
    Filmy
    Forum
    Pravidlá
    BitTorrent
    klient
    Meno: Heslo:
    Zaregistrovat
    Po zaregistrovaní mozte volne stahovat
    Zabudol som heslo

    Saint Seiya - Knights of the Zodiac / Rytiri zverokruhu (S01)(1080p)(AVC)(WebDl)(EN-DE-JP)(CZtit+MultiSUB) = CSFD 57% Názov:Saint Seiya - Knights of the Zodiac / Rytiri zverokruhu (S01)(1080p)(AVC)(WebDl)(EN-DE-JP)(CZtit+MultiSUB) = CSFD 57% Hodnocení:N/A Stiahnut
    Pozriet Online
    Kategória:Seriál Velikost:2.6 GB BitTorrent klient
    Pridaný: Súbory:
    Skontrolován:2022-11-19 Peerov:3 (Seed: 3, Leech: 0)
    Zaner:Akcni,Animovany,Fantasy,Sci-Fi Uploader:Uvidis, az ked budes
    VIP
    Kúp nám Pivo 1,10€

    Kúp nám Pivo
    Pridaj do zalozky
    Pridaj do zalozky






    [center]





    Movie Name:  Saint Seiya - Knights of the Zodiac (S01)(2019)
    IMDb Rating: 5.0/10

    Quality: 1080p (WebDL)
    Language: E-AC-3 5.1  - English , Japanese , Germany
    Subtitles : Multi
    Director: Jošiharu Ašino
    Writers: Masami Kurumada
    Genres: Action | Animation | Adventure |


    A digital remake from the Japanese anime classic Seinto Seiya (1986).




    [/center]
    Format                                   : MPEG-4
    Format profile                           : Base Media
    Codec ID                                 : isom (isom/iso2/avc1/mp41)
    File size                                : 388 MiB
    Duration                                 : 23 min 35 s
    Overall bit rate mode                    : Variable
    Overall bit rate                         : 2 298 kb/s
    Collection                               : SAINT SEIYA: Rytíři zvěrokruhu
    Season                                   : 1
    Track name                               : SEIYA
    Description                              : Seiya prokáže, že má zvláštní schopnosti. Osloví ho záhadný Alman Kido, který ho nabádá, aby naplnil svůj osud a stal se Bronzovým rytířem.
    Writing application                      : Lavf58.76.100
    Cover                                    : Yes
    Part_ID                                  : 1

    Video
    ID                                       : 1
    Format                                   : AVC
    Format/Info                              : Advanced Video Codec
    Format profile                           : High@L4
    Format settings                          : CABAC / 4 Ref Frames
    Format settings, CABAC                   : Yes
    Format settings, Reference frames        : 4 frames
    Codec ID                                 : avc1
    Codec ID/Info                            : Advanced Video Coding
    Duration                                 : 23 min 35 s
    Bit rate mode                            : Variable
    Bit rate                                 : 1 906 kb/s
    Maximum bit rate                         : 20.0 Mb/s
    Width                                    : 1 920 pixels
    Height                                   : 1 080 pixels
    Display aspect ratio                     : 16:9
    Frame rate mode                          : Constant
    Frame rate                               : 23.976 (24000/1001) FPS
    Color space                              : YUV
    Chroma subsampling                       : 4:2:0
    Bit depth                                : 8 bits
    Scan type                                : Progressive
    Bits/(Pixel*Frame)                       : 0.038
    Stream size                              : 322 MiB (83%)
    Title                                    : ?@GPAC2.1-DEV-rev6242-g07e35adfb-HEAD
    Writing library                          : x264 core 148 r2727 7d026e8
    Encoding settings                        : cabac=1 / ref=4 / deblock=1:0:0 / analyse=0x3:0x111 / me=umh / subme=10 / psy=1 / psy_rd=1.00:0.00 / mixed_ref=1 / me_range=120 / chroma_me=1 / trellis=2 / 8x8dct=1 / cqm=0 / deadzone=21,11 / fast_pskip=1 / chroma_qp_offset=-2 / threads=8 / lookahead_threads=2 / sliced_threads=0 / nr=0 / decimate=1 / interlaced=0 / bluray_compat=0 / stitchable=1 / constrained_intra=0 / bframes=16 / b_pyramid=2 / b_adapt=2 / b_bias=0 / direct=3 / weightb=1 / open_gop=0 / weightp=2 / keyint=240 / keyint_min=121 / scenecut=0 / intra_refresh=0 / rc_lookahead=240 / rc=crf / mbtree=1 / crf=22.0 / qcomp=0.50 / qpmin=6 / qpmax=51 / qpstep=4 / vbv_maxrate=20000 / vbv_bufsize=25000 / crf_max=0.0 / nal_hrd=vbr / filler=0 / ip_ratio=1.40 / aq=1:0.80
    Codec configuration box                  : avcC

    Audio #1
    ID                                       : 3
    Format                                   : AAC LC SBR
    Format/Info                              : Advanced Audio Codec Low Complexity with Spectral Band Replication
    Commercial name                          : HE-AAC
    Format settings                          : Explicit
    Codec ID                                 : mp4a-40-2
    Duration                                 : 23 min 35 s
    Bit rate mode                            : Constant
    Bit rate                                 : 128 kb/s
    Channel(s)                               : 2 channels
    Channel layout                           : L R
    Sampling rate                            : 48.0 kHz
    Frame rate                               : 23.438 FPS (2048 SPF)
    Compression mode                         : Lossy
    Stream size                              : 21.6 MiB (6%)
    Title                                    : němčina
    Language                                 : German
    Default                                  : Yes
    Alternate group                          : 2

    Audio #2
    ID                                       : 4
    Format                                   : AAC LC SBR
    Format/Info                              : Advanced Audio Codec Low Complexity with Spectral Band Replication
    Commercial name                          : HE-AAC
    Format settings                          : Explicit
    Codec ID                                 : mp4a-40-2
    Duration                                 : 23 min 35 s
    Bit rate mode                            : Constant
    Bit rate                                 : 128 kb/s
    Channel(s)                               : 2 channels
    Channel layout                           : L R
    Sampling rate                            : 48.0 kHz
    Frame rate                               : 23.438 FPS (2048 SPF)
    Compression mode                         : Lossy
    Stream size                              : 21.6 MiB (6%)
    Title                                    : angličtina
    Language                                 : English
    Default                                  : Yes
    Alternate group                          : 3

    Audio #3
    ID                                       : 5
    Format                                   : AAC LC SBR
    Format/Info                              : Advanced Audio Codec Low Complexity with Spectral Band Replication
    Commercial name                          : HE-AAC
    Format settings                          : Explicit
    Codec ID                                 : mp4a-40-2
    Duration                                 : 23 min 35 s
    Bit rate mode                            : Constant
    Bit rate                                 : 128 kb/s
    Channel(s)                               : 2 channels
    Channel layout                           : L R
    Sampling rate                            : 48.0 kHz
    Frame rate                               : 23.438 FPS (2048 SPF)
    Compression mode                         : Lossy
    Stream size                              : 21.6 MiB (6%)
    Title                                    : japonština [Originál]
    Language                                 : Japanese
    Default                                  : Yes
    Alternate group                          : 4

    Text #1
    ID                                       : 6
    Format                                   : Timed Text
    Muxing mode                              : sbtl
    Codec ID                                 : tx3g
    Duration                                 : 21 min 40 s
    Bit rate mode                            : Variable
    Bit rate                                 : 73 b/s
    Stream size                              : 11.5 KiB (0%)
    Title                                    : čeština
    Language                                 : Czech
    Default                                  : Yes
    Forced                                   : No
    Alternate group                          : 5

    Text #2
    ID                                       : 7
    Format                                   : Timed Text
    Muxing mode                              : sbtl
    Codec ID                                 : tx3g
    Duration                                 : 21 min 40 s
    Bit rate mode                            : Variable
    Bit rate                                 : 77 b/s
    Stream size                              : 12.2 KiB (0%)
    Title                                    : němčina
    Language                                 : German
    Default                                  : No
    Forced                                   : No
    Alternate group                          : 6

    Text #3
    ID                                       : 8
    Format                                   : Timed Text
    Muxing mode                              : sbtl
    Codec ID                                 : tx3g
    Duration                                 : 14 min 50 s
    Bit rate mode                            : Variable
    Bit rate                                 : 1 b/s
    Stream size                              : 110 Bytes (0%)
    Title                                    : German [ForcedNarrative]
    Language                                 : German
    Default                                  : No
    Forced                                   : No
    Alternate group                          : 7

    Text #4
    ID                                       : 9
    Format                                   : Timed Text
    Muxing mode                              : sbtl
    Codec ID                                 : tx3g
    Duration                                 : 22 min 56 s
    Bit rate mode                            : Variable
    Bit rate                                 : 93 b/s
    Stream size                              : 15.6 KiB (0%)
    Title                                    : angličtina [CC]
    Language                                 : English
    Default                                  : No
    Forced                                   : No
    Alternate group                          : 8

    Text #5
    ID                                       : 10
    Format                                   : Timed Text
    Muxing mode                              : sbtl
    Codec ID                                 : tx3g
    Duration                                 : 21 min 40 s
    Bit rate mode                            : Variable
    Bit rate                                 : 77 b/s
    Stream size                              : 12.2 KiB (0%)
    Title                                    : maďarština
    Language                                 : Hungarian
    Default                                  : No
    Forced                                   : No
    Alternate group                          : 9

    Text #6
    ID                                       : 11
    Format                                   : Timed Text
    Muxing mode                              : sbtl
    Codec ID                                 : tx3g
    Duration                                 : 6 min 51 s
    Bit rate mode                            : Variable
    Bit rate                                 : 2 b/s
    Stream size                              : 96.0 Bytes (0%)
    Title                                    : Japanese [ForcedNarrative]
    Language                                 : Japanese
    Default                                  : No
    Forced                                   : No
    Alternate group                          : 10

    Text #7
    ID                                       : 12
    Format                                   : Timed Text
    Muxing mode                              : sbtl
    Codec ID                                 : tx3g
    Duration                                 : 21 min 40 s
    Bit rate mode                            : Variable
    Bit rate                                 : 65 b/s
    Stream size                              : 10.3 KiB (0%)
    Title                                    : japonština
    Language                                 : Japanese
    Default                                  : No
    Forced                                   : No
    Alternate group                          : 11

    Text #8
    ID                                       : 13
    Format                                   : Timed Text
    Muxing mode                              : sbtl
    Codec ID                                 : tx3g
    Duration                                 : 21 min 40 s
    Bit rate mode                            : Variable
    Bit rate                                 : 69 b/s
    Stream size                              : 11.0 KiB (0%)
    Title                                    : polština
    Language                                 : Polish
    Default                                  : No
    Forced                                   : No
    Alternate group                          : 12










    pohee,

    + Pridaj vlastnu verziu tohto torrentu +


    Upozornenie:
    Ziadny zo zobrazených súborov sa nenachádza na tomto serveri. Server slúzi len k síreniu vlastnorucne vytvorených aplikácií, videí, hudby ai. Autori stránok nenesú ziadnu zodpovednost za zverejnené odkazy, komentáre a obsah súborov. Vsetky komentáre, odkazy, súbory ktoré by svojou povahou mohli byt v rozpore zo zákonmi sem vkladáte na vlastnú zodpovednost. Autori stránok si vyhradzujú právo cenzúry odkazov, komentárov príp. súborov, ktoré by svojou povahou mohli byt v rozpore zo zákonmi a dobrými mravmi. Dodrzujte pravidlá!


    No comments...


    Back

    Na serveru se nenalézají zádne soubory. Za odkazy jsou výhradně zodpovědní uzivatelé a návstěvníci tohoto trackeru. Administrátor není zodpovědný za pridaný obsah ani za skody zpusobené uzivateli. Nesmíte pouzívat tuto webovou stránku pro distribuovaní nebo download zádného materiálu pokud nemáte povolení od príslusného vlastníka práv. Uzivatelé jsou zodpovědní za dodrzování těchto pravidel a podmínek. Owner má právo kdykoliv změnit pravidla tohoto trackeru.

    [ Script trval: 0.036 sec. ] - [ GZIP: enabled ]
    Je zhruba 20:39
    sql

    TOPlist