Tvoj účet nieje VIP.
Preto sú tvoje funkcie a možnosti značne obmedzené.
Pre aktiváciu VIP klikni sem.

Samaritan (2022)(CZTit)(1080p)(WEB-DL) = CSFD 54% | SkTorrent.eu

Cz-SkTorrent open Tracker, na volné zdielanie súborov. Pridajte sa k nasej komunite a získajte pristup k tisícom torrentov.

  • vysoká rýchlost
  • úplne zdarma
  • prevazne Slovenska a Ceska scena
  • ste tu s nami uz 5 rokov - Dakujeme
  • Vitaj Guest (Login) Ako stahovat
    torrenty?
    Torrenty:
    v1 textová
    v2 obrázková
    v3 online filmy
    Ako sa stat
    Uploaderom
    Online
    Filmy
    Forum
    Pravidlá
    BitTorrent
    klient
    Meno: Heslo:
    Zaregistrovat
    Po zaregistrovaní mozte volne stahovat
    Zabudol som heslo

    Torrent's details
    Samaritan (2022)(CZTit)(1080p)(WEB-DL) = CSFD 54% Názov:Samaritan (2022)(CZTit)(1080p)(WEB-DL) = CSFD 54% Hodnocení: Stiahnut
    Pozriet Online
    Kategória:Filmy s titulkama Velikost:3.7 GB BitTorrent klient
    Pridaný: Súbory:
    Skontrolován:2022-08-31 Peerov:22 (Seed: 22, Leech: 0)
    Zaner:Drama,Fantasy,Sci-Fi Uploader:Uvidis, az ked budes
    VIP
    Kúp nám Pivo 1,10€

    Kúp nám Pivo
    Podporte nas na Facebooku !
    Pridaj do zalozky
    Pridaj do zalozky




    Jazyk: EN
    Titulky: CZ
    CSFD: https://www.csfd.cz/film/792763-samaritan/prehled/
    Drama / Fantasy / Sci-Fi
    USA, 2022, 99 min




    Trinásťročný Sam Cleary (Javon „Wanna“ Walton) má podozrenie, že jeho záhadne samotársky sused pán Smith ((Sylvester Stallone - )) je v skutočnosti legendárnym strážcom Samaritánom, ktorý bol pred 25 rokmi nahlásený ako mŕtvy. S narastajúcou kriminalitou a mestom na pokraji chaosu si Sam kladie za úlohu vylákať svojho suseda z úkrytu, aby zachránil mesto pred skazou.

    Formát                                   : MPEG-4
    Profil formátu                           : Base Media
    Označenie kodeku                         : isom (isom/iso2/avc1/mp41)
    Veľkosť súboru                           : 3,66 GiB
    Trvanie                                  : 1 h 42 min
    Overall bit rate mode                    : Variabilný dátový tok
    Celkový dátový tok                       : 5 125 kb/s
    Collection                               : Samaritan
    Názov stopy                              : Samaritan
    Dátum nahrávania                         : 2022
    Obal                                     : Yes

    Video
    ID                                       : 1
    Formát                                   : AVC
    Formát/Info                              : Advanced Video Codec
    Profil formátu                           : High@L4
    Nastavenia formátu                       : CABAC / 4 Ref Frames
    Format settings, CABAC                   : Áno
    Format settings, Reference frames        : 4snímky
    Označenie kodeku                         : avc1
    Označenie kodeku/Info                    : Advanced Video Coding
    Trvanie                                  : 1 h 42 min
    Dátový tok                               : 4 479 kb/s
    Šírka                                    : 1 920 pixelov
    Výška                                    : 800 pixelov
    Pomer strán                              : 2,40:1
    Režim frekvencie snímok                  : Konštantný
    Frekvencia snímok                        : 23,976 (24000/1001) snímok/sek.
    Color space                              : YUV
    Chroma subsampling                       : 4:2:0
    Bit depth                                : 8 bitov
    Scan type                                : Progresívne
    Bitov/(Bod*Snímka)                       : 0.122
    Stream size                              : 3,20 GiB (87%)
    Color range                              : Limited
    Color primaries                          : BT.709
    Transfer characteristics                 : BT.709
    Matrix coefficients                      : BT.709
    Codec configuration box                  : avcC

    Audio
    ID                                       : 3
    Formát                                   : E-AC-3
    Formát/Info                              : Enhanced AC-3
    Commercial name                          : Dolby Digital Plus
    Označenie kodeku                         : ec-3
    Trvanie                                  : 1 h 42 min
    Režim dátového toku                      : Konštantný dátový tok
    Dátový tok                               : 640 kb/s
    Kanál(y)                                 : 6 kanálov
    Channel layout                           : L R C LFE Ls Rs
    Sampling rate                            : 48,0 kHz
    Frekvencia snímok                        : 31,250 snímok/sek. (1536 SPF)
    Compression mode                         : Lossy
    Stream size                              : 468 MiB (12%)
    Jazyk                                    : Anglicky
    Service kind                             : Complete Main
    Default                                  : Áno
    Alternate group                          : 1

    Text #1
    ID                                       : 4
    Formát                                   : Timed Text
    Muxing mode                              : sbtl
    Označenie kodeku                         : tx3g
    Trvanie                                  : 31 min 35 sek.
    Režim dátového toku                      : Variabilný dátový tok
    Dátový tok                               : 2 b/s
    Frekvencia snímok                        : 0,018 snímok/sek.
    Stream size                              : 550 Bytov (0%)
    Jazyk                                    : Česky
    Default                                  : Áno
    Forced                                   : Nie
    Alternate group                          : 3

    Text #2
    ID                                       : 5
    Formát                                   : Timed Text
    Muxing mode                              : sbtl
    Označenie kodeku                         : tx3g
    Trvanie                                  : 1 h 39 min
    Režim dátového toku                      : Variabilný dátový tok
    Dátový tok                               : 44 b/s
    Frekvencia snímok                        : 0,396 snímok/sek.
    Stream size                              : 32,3 kiB (0%)
    Jazyk                                    : Česky
    Default                                  : Nie
    Forced                                   : Nie
    Alternate group                          : 3






    ONLINE

    CZ dabing






    CZ titulky









    Detektiv, malazaba333, llebo4, Rojak, jirkacbx, jirkacbx, joshi59, tomy6666, UNHOLY666, vaclav78,

    + Pridaj vlastnu verziu tohto torrentu +


    Upozornenie:
    Ziadny zo zobrazených súborov sa nenachádza na tomto serveri. Server slúzi len k síreniu vlastnorucne vytvorených aplikácií, videí, hudby ai. Autori stránok nenesú ziadnu zodpovednost za zverejnené odkazy, komentáre a obsah súborov. Vsetky komentáre, odkazy, súbory ktoré by svojou povahou mohli byt v rozpore zo zákonmi sem vkladáte na vlastnú zodpovednost. Autori stránok si vyhradzujú právo cenzúry odkazov, komentárov príp. súborov, ktoré by svojou povahou mohli byt v rozpore zo zákonmi a dobrými mravmi. Dodrzujte pravidlá!





    -1
    ernest-bodor-bobin
    Ratio 4.19

    Member+

    05/09/2022 14.15.37

    0
    MalamadreR
    Ratio 0.09

    VIP

    31/08/2022 21.23.52
    (800p)(WEB-DL)

    MI:

    Šírka                                    : 1 920 pixelov
    Výška                                    : 800 pixelov


    ???


    Back

    Na serveru se nenalézají zádne soubory. Za odkazy jsou výhradně zodpovědní uzivatelé a návstěvníci tohoto trackeru. Administrátor není zodpovědný za pridaný obsah ani za skody zpusobené uzivateli. Rozsirovat stránku nebo její obsah bez souhlasu ownera je zakázano. Nesmíte pouzívat tuto webovou stránku pro distribuovaní nebo download zádného materiálu pokud nemáte povolení od príslusného vlastníka práv. Uzivatelé jsou zodpovědní za dodrzování těchto pravidel a podmínek. Owner má právo kdykoliv změnit pravidla tohoto trackeru.

    [ Script trval: 0.024 sec. ] - [ GZIP: enabled ]
    Je zhruba 19:22
    sql

    TOPlist