Tvoj účet nieje VIP.
Preto sú tvoje funkcie a možnosti značne obmedzené.
Pre aktiváciu VIP klikni sem.

Samaritan (2022)(FHD)(1080p)(Webdl)(Hevc)(CZ+Multi 7 lang)(MultiSub) = CSFD 54% | SkTorrent.eu

Cz-SkTorrent open Tracker, na volné zdieľanie súborov. Pridajte sa k našej komunite a získajte prístup k tisícom torrentov.

  • vysoká rýchlosť
  • úplne zdarma
  • prevažne Slovenská a Česká scéna
  • ste tu s nami už 10 rokov - Ďakujeme
  • Vitaj Guest (Login) Ako stahovat
    torrenty?
    Torrenty:
    v1 textová
    v2 obrázková
    Ako sa stat
    Uploaderom
    Online
    Filmy
    Forum
    Pravidlá
    SkTSocial
    BitTorrent
    klient
    Meno: Heslo:
    Zaregistrovat
    Po zaregistrovaní mozte volne stahovat
    Zabudol som heslo

    Samaritan (2022)(FHD)(1080p)(Webdl)(Hevc)(CZ+Multi 7 lang)(MultiSub)  = CSFD 54% Názov:Samaritan (2022)(FHD)(1080p)(Webdl)(Hevc)(CZ+Multi 7 lang)(MultiSub) = CSFD 54% Hodnocení: Stiahnut
    Pozriet Online
    Kategória:Filmy CZ/SK dabing - cz Velikost:2.8 GB BitTorrent klient
    Pridaný: Súbory:
    Skontrolován:2022-11-06 Peerov:42 (Seed: 42, Leech: 0)
    Zaner:Drama,Fantasy,Sci-Fi Uploader:Uvidis, az ked budes
    VIP
    Kúp nám Pivo 1,10€

    Kúp nám Pivo

    Pridaj do zalozky
    Pridaj do zalozky






    [center]





    Movie Name: Samaritán
    IMDb Rating: 5.7/10

    Quality: 1080p (WebDL)
    Language: AAC 2.0 - Germany , English , Spanish, Italian , Portuguese , French , Czech
    Subtitles: Multi 32+
    Director: Julius Avery
    Writers: Bragi F. Schut
    Genres: Action | Fantasy | Drama |


    A young boy learns that a superhero who was thought to have gone missing after an epic battle twenty years ago may in fact still be around.




    [/center]
    Format                                   : MPEG-4
    Format profile                           : Base Media
    Codec ID                                 : isom (isom/iso2/mp41)
    File size                                : 2.82 GiB
    Duration                                 : 1 h 42 min
    Overall bit rate mode                    : Variable
    Overall bit rate                         : 3 942 kb/s
    Collection                               : Samaritán
    Track name                               : Samaritán
    Description                              : Třináctiletý Sam Cleary (Javon „Wanna“ Walton) má podezření, že jeho záhadně samotářský soused pan Smith ((Sylvester Stallone - )) je ve skutečnosti legendární hrdina Samaritán, který byl před 25 lety prohlášen za mrtvého. Zločinnost je na vzestupu, město balancuje na hraně chaosu a Sam se rozhodne vylákat svého souseda z úkrytu, aby zachránil město před zkázou.
    Recorded date                            : 2022
    Writing application                      : Lavf58.76.100
    Cover                                    : Yes

    Video
    ID                                       : 1
    Format                                   : HEVC
    Format/Info                              : High Efficiency Video Coding
    Format profile                           : Main@L4@Main
    Codec ID                                 : hev1
    Codec ID/Info                            : High Efficiency Video Coding
    Duration                                 : 1 h 42 min
    Bit rate                                 : 3 021 kb/s
    Width                                    : 1 920 pixels
    Height                                   : 800 pixels
    Display aspect ratio                     : 2.40:1
    Frame rate mode                          : Constant
    Frame rate                               : 23.976 (24000/1001) FPS
    Standard                                 : NTSC
    Color space                              : YUV
    Chroma subsampling                       : 4:2:0
    Bit depth                                : 8 bits
    Bits/(Pixel*Frame)                       : 0.082
    Stream size                              : 2.16 GiB (77%)
    Color range                              : Limited
    Color primaries                          : BT.709
    Transfer characteristics                 : BT.709
    Matrix coefficients                      : BT.709
    Codec configuration box                  : hvcC

    Audio #1
    ID                                       : 3
    Format                                   : AAC LC
    Format/Info                              : Advanced Audio Codec Low Complexity
    Codec ID                                 : mp4a-40-2
    Duration                                 : 1 h 42 min
    Bit rate mode                            : Constant
    Bit rate                                 : 128 kb/s
    Channel(s)                               : 2 channels
    Channel layout                           : L R
    Sampling rate                            : 48.0 kHz
    Frame rate                               : 46.875 FPS (1024 SPF)
    Compression mode                         : Lossy
    Stream size                              : 93.7 MiB (3%)
    Language                                 : German
    Default                                  : Yes
    Alternate group                          : 2

    Audio #2
    ID                                       : 4
    Format                                   : AAC LC
    Format/Info                              : Advanced Audio Codec Low Complexity
    Codec ID                                 : mp4a-40-2
    Duration                                 : 1 h 42 min
    Bit rate mode                            : Constant
    Bit rate                                 : 128 kb/s
    Channel(s)                               : 2 channels
    Channel layout                           : L R
    Sampling rate                            : 48.0 kHz
    Frame rate                               : 46.875 FPS (1024 SPF)
    Compression mode                         : Lossy
    Stream size                              : 93.7 MiB (3%)
    Language                                 : English
    Default                                  : Yes
    Alternate group                          : 3

    Audio #3
    ID                                       : 5
    Format                                   : AAC LC
    Format/Info                              : Advanced Audio Codec Low Complexity
    Codec ID                                 : mp4a-40-2
    Duration                                 : 1 h 42 min
    Bit rate mode                            : Constant
    Bit rate                                 : 128 kb/s
    Channel(s)                               : 2 channels
    Channel layout                           : L R
    Sampling rate                            : 48.0 kHz
    Frame rate                               : 46.875 FPS (1024 SPF)
    Compression mode                         : Lossy
    Stream size                              : 93.7 MiB (3%)
    Language                                 : Spanish
    Default                                  : Yes
    Alternate group                          : 4

    Audio #4
    ID                                       : 6
    Format                                   : AAC LC
    Format/Info                              : Advanced Audio Codec Low Complexity
    Codec ID                                 : mp4a-40-2
    Duration                                 : 1 h 42 min
    Bit rate mode                            : Constant
    Bit rate                                 : 128 kb/s
    Channel(s)                               : 2 channels
    Channel layout                           : L R
    Sampling rate                            : 48.0 kHz
    Frame rate                               : 46.875 FPS (1024 SPF)
    Compression mode                         : Lossy
    Stream size                              : 93.7 MiB (3%)
    Language                                 : French
    Default                                  : Yes
    Alternate group                          : 5

    Audio #5
    ID                                       : 7
    Format                                   : AAC LC
    Format/Info                              : Advanced Audio Codec Low Complexity
    Codec ID                                 : mp4a-40-2
    Duration                                 : 1 h 42 min
    Bit rate mode                            : Constant
    Bit rate                                 : 128 kb/s
    Channel(s)                               : 2 channels
    Channel layout                           : L R
    Sampling rate                            : 48.0 kHz
    Frame rate                               : 46.875 FPS (1024 SPF)
    Compression mode                         : Lossy
    Stream size                              : 93.7 MiB (3%)
    Language                                 : Italian
    Default                                  : Yes
    Alternate group                          : 6

    Audio #6
    ID                                       : 8
    Format                                   : AAC LC
    Format/Info                              : Advanced Audio Codec Low Complexity
    Codec ID                                 : mp4a-40-2
    Duration                                 : 1 h 42 min
    Bit rate mode                            : Constant
    Bit rate                                 : 128 kb/s
    Channel(s)                               : 2 channels
    Channel layout                           : L R
    Sampling rate                            : 48.0 kHz
    Frame rate                               : 46.875 FPS (1024 SPF)
    Compression mode                         : Lossy
    Stream size                              : 93.7 MiB (3%)
    Language                                 : Portuguese
    Default                                  : Yes
    Alternate group                          : 7

    Audio #7
    ID                                       : 9
    Format                                   : AAC LC
    Format/Info                              : Advanced Audio Codec Low Complexity
    Codec ID                                 : mp4a-40-2
    Duration                                 : 1 h 42 min
    Bit rate mode                            : Constant
    Bit rate                                 : 128 kb/s
    Channel(s)                               : 2 channels
    Channel layout                           : L R
    Sampling rate                            : 48.0 kHz
    Frame rate                               : 46.875 FPS (1024 SPF)
    Compression mode                         : Lossy
    Stream size                              : 93.7 MiB (3%)
    Language                                 : Czech
    Default                                  : Yes
    Alternate group                          : 8

    Text #1
    ID                                       : 10
    Format                                   : Timed Text
    Muxing mode                              : sbtl
    Codec ID                                 : tx3g
    Duration                                 : 31 min 35 s
    Bit rate mode                            : Variable
    Bit rate                                 : 2 b/s
    Stream size                              : 513 Bytes (0%)
    Language                                 : Malay
    Default                                  : No
    Forced                                   : No
    Alternate group                          : 9

    Text #2
    ID                                       : 11
    Format                                   : Timed Text
    Muxing mode                              : sbtl
    Codec ID                                 : tx3g
    Duration                                 : 31 min 27 s
    Bit rate mode                            : Variable
    Bit rate                                 : 2 b/s
    Stream size                              : 438 Bytes (0%)
    Language                                 : Catalan
    Default                                  : No
    Forced                                   : No
    Alternate group                          : 10

    Text #3
    ID                                       : 12
    Format                                   : Timed Text
    Muxing mode                              : sbtl
    Codec ID                                 : tx3g
    Duration                                 : 31 min 35 s
    Bit rate mode                            : Variable
    Bit rate                                 : 2 b/s
    Stream size                              : 478 Bytes (0%)
    Language                                 : German
    Default                                  : No
    Forced                                   : No
    Alternate group                          : 11

    Text #4
    ID                                       : 13
    Format                                   : Timed Text
    Muxing mode                              : sbtl
    Codec ID                                 : tx3g
    Duration                                 : 31 min 35 s
    Bit rate mode                            : Variable
    Bit rate                                 : 2 b/s
    Stream size                              : 463 Bytes (0%)
    Language                                 : Spanish
    Default                                  : No
    Forced                                   : No
    Alternate group                          : 12

    Text #5
    ID                                       : 14
    Format                                   : Timed Text
    Muxing mode                              : sbtl
    Codec ID                                 : tx3g
    Duration                                 : 31 min 35 s
    Bit rate mode                            : Variable
    Bit rate                                 : 2 b/s
    Stream size                              : 531 Bytes (0%)
    Language                                 : Spanish
    Default                                  : No
    Forced                                   : No
    Alternate group                          : 13

    Text #6
    ID                                       : 15
    Format                                   : Timed Text
    Muxing mode                              : sbtl
    Codec ID                                 : tx3g
    Duration                                 : 31 min 27 s
    Bit rate mode                            : Variable
    Bit rate                                 : 2 b/s
    Stream size                              : 415 Bytes (0%)
    Default                                  : No
    Forced                                   : No
    Alternate group                          : 14

    Text #7
    ID                                       : 16
    Format                                   : Timed Text
    Muxing mode                              : sbtl
    Codec ID                                 : tx3g
    Duration                                 : 31 min 34 s
    Bit rate mode                            : Variable
    Bit rate                                 : 2 b/s
    Stream size                              : 473 Bytes (0%)
    Language                                 : French
    Default                                  : No
    Forced                                   : No
    Alternate group                          : 15

    Text #8
    ID                                       : 17
    Format                                   : Timed Text
    Muxing mode                              : sbtl
    Codec ID                                 : tx3g
    Duration                                 : 27 min 4 s
    Bit rate mode                            : Variable
    Bit rate                                 : 1 b/s
    Stream size                              : 233 Bytes (0%)
    Language                                 : French
    Default                                  : No
    Forced                                   : No
    Alternate group                          : 16

    Text #9
    ID                                       : 18
    Format                                   : Timed Text
    Muxing mode                              : sbtl
    Codec ID                                 : tx3g
    Duration                                 : 31 min 35 s
    Bit rate mode                            : Variable
    Bit rate                                 : 2 b/s
    Stream size                              : 479 Bytes (0%)
    Language                                 : Indonesian
    Default                                  : No
    Forced                                   : No
    Alternate group                          : 17

    Text #10
    ID                                       : 19
    Format                                   : Timed Text
    Muxing mode                              : sbtl
    Codec ID                                 : tx3g
    Duration                                 : 31 min 35 s
    Bit rate mode                            : Variable
    Bit rate                                 : 2 b/s
    Stream size                              : 427 Bytes (0%)
    Language                                 : Italian
    Default                                  : No
    Forced                                   : No
    Alternate group                          : 18

    Text #11
    ID                                       : 20
    Format                                   : Timed Text
    Muxing mode                              : sbtl
    Codec ID                                 : tx3g
    Duration                                 : 31 min 35 s
    Bit rate mode                            : Variable
    Bit rate                                 : 2 b/s
    Stream size                              : 578 Bytes (0%)
    Language                                 : Hungarian
    Default                                  : No
    Forced                                   : No
    Alternate group                          : 19

    Text #12
    ID                                       : 21
    Format                                   : Timed Text
    Muxing mode                              : sbtl
    Codec ID                                 : tx3g
    Duration                                 : 31 min 35 s
    Bit rate mode                            : Variable
    Bit rate                                 : 2 b/s
    Stream size                              : 361 Bytes (0%)
    Language                                 : Dutch
    Default                                  : No
    Forced                                   : No
    Alternate group                          : 20

    Text #13
    ID                                       : 22
    Format                                   : Timed Text
    Muxing mode                              : sbtl
    Codec ID                                 : tx3g
    Duration                                 : 11 min 56 s
    Bit rate mode                            : Variable
    Bit rate                                 : 2 b/s
    Stream size                              : 151 Bytes (0%)
    Language                                 : Polish
    Default                                  : No
    Forced                                   : No
    Alternate group                          : 21

    Text #14
    ID                                       : 23
    Format                                   : Timed Text
    Muxing mode                              : sbtl
    Codec ID                                 : tx3g
    Duration                                 : 40 s 583 ms
    Duration_FirstFrame                      : 37 s 913 ms
    Bit rate mode                            : Variable
    Bit rate                                 : 4 b/s
    Stream size                              : 22.0 Bytes (0%)
    Language                                 : Portuguese
    Default                                  : No
    Forced                                   : No
    Alternate group                          : 22

    Text #15
    ID                                       : 24
    Format                                   : Timed Text
    Muxing mode                              : sbtl
    Codec ID                                 : tx3g
    Duration                                 : 31 min 27 s
    Bit rate mode                            : Variable
    Bit rate                                 : 1 b/s
    Stream size                              : 301 Bytes (0%)
    Language                                 : Portuguese
    Default                                  : No
    Forced                                   : No
    Alternate group                          : 23

    Text #16
    ID                                       : 25
    Format                                   : Timed Text
    Muxing mode                              : sbtl
    Codec ID                                 : tx3g
    Duration                                 : 40 s 583 ms
    Duration_FirstFrame                      : 37 s 913 ms
    Bit rate mode                            : Variable
    Bit rate                                 : 6 b/s
    Stream size                              : 30.0 Bytes (0%)
    Language                                 : Romanian
    Default                                  : No
    Forced                                   : No
    Alternate group                          : 24

    Text #17
    ID                                       : 26
    Format                                   : Timed Text
    Muxing mode                              : sbtl
    Codec ID                                 : tx3g
    Duration                                 : 31 min 35 s
    Bit rate mode                            : Variable
    Bit rate                                 : 3 b/s
    Stream size                              : 724 Bytes (0%)
    Language                                 : Vietnamese
    Default                                  : No
    Forced                                   : No
    Alternate group                          : 25

    Text #18
    ID                                       : 27
    Format                                   : Timed Text
    Muxing mode                              : sbtl
    Codec ID                                 : tx3g
    Duration                                 : 31 min 27 s
    Bit rate mode                            : Variable
    Bit rate                                 : 2 b/s
    Stream size                              : 452 Bytes (0%)
    Language                                 : Turkish
    Default                                  : No
    Forced                                   : No
    Alternate group                          : 26

    Text #19
    ID                                       : 28
    Format                                   : Timed Text
    Muxing mode                              : sbtl
    Codec ID                                 : tx3g
    Duration                                 : 31 min 35 s
    Bit rate mode                            : Variable
    Bit rate                                 : 2 b/s
    Stream size                              : 550 Bytes (0%)
    Language                                 : Czech
    Default                                  : Yes
    Forced                                   : No
    Alternate group                          : 27

    Text #20
    ID                                       : 29
    Format                                   : Timed Text
    Muxing mode                              : sbtl
    Codec ID                                 : tx3g
    Duration                                 : 31 min 27 s
    Bit rate mode                            : Variable
    Bit rate                                 : 2 b/s
    Stream size                              : 565 Bytes (0%)
    Language                                 : Greek
    Default                                  : No
    Forced                                   : No
    Alternate group                          : 28

    Text #21
    ID                                       : 30
    Format                                   : Timed Text
    Muxing mode                              : sbtl
    Codec ID                                 : tx3g
    Duration                                 : 31 min 35 s
    Bit rate mode                            : Variable
    Bit rate                                 : 4 b/s
    Stream size                              : 861 Bytes (0%)
    Language                                 : Hebrew
    Default                                  : No
    Forced                                   : No
    Alternate group                          : 29

    Text #22
    ID                                       : 31
    Format                                   : Timed Text
    Muxing mode                              : sbtl
    Codec ID                                 : tx3g
    Duration                                 : 31 min 35 s
    Bit rate mode                            : Variable
    Bit rate                                 : 4 b/s
    Stream size                              : 1 009 Bytes (0%)
    Language                                 : Arabic
    Default                                  : No
    Forced                                   : No
    Alternate group                          : 30

    Text #23
    ID                                       : 32
    Format                                   : Timed Text
    Muxing mode                              : sbtl
    Codec ID                                 : tx3g
    Duration                                 : 31 min 35 s
    Bit rate mode                            : Variable
    Bit rate                                 : 5 b/s
    Stream size                              : 1.25 KiB (0%)
    Language                                 : Hindi
    Default                                  : No
    Forced                                   : No
    Alternate group                          : 31

    Text #24
    ID                                       : 33
    Format                                   : Timed Text
    Muxing mode                              : sbtl
    Codec ID                                 : tx3g
    Duration                                 : 31 min 35 s
    Bit rate mode                            : Variable
    Bit rate                                 : 5 b/s
    Stream size                              : 1.14 KiB (0%)
    Language                                 : Tamil
    Default                                  : No
    Forced                                   : No
    Alternate group                          : 32

    Text #25
    ID                                       : 34
    Format                                   : Timed Text
    Muxing mode                              : sbtl
    Codec ID                                 : tx3g
    Duration                                 : 31 min 35 s
    Bit rate mode                            : Variable
    Bit rate                                 : 4 b/s
    Stream size                              : 1.01 KiB (0%)
    Language                                 : Telugu
    Default                                  : No
    Forced                                   : No
    Alternate group                          : 33

    Text #26
    ID                                       : 35
    Format                                   : Timed Text
    Muxing mode                              : sbtl
    Codec ID                                 : tx3g
    Duration                                 : 31 min 27 s
    Bit rate mode                            : Variable
    Bit rate                                 : 5 b/s
    Stream size                              : 1.26 KiB (0%)
    Language                                 : Kannada
    Default                                  : No
    Forced                                   : No
    Alternate group                          : 34

    Text #27
    ID                                       : 36
    Format                                   : Timed Text
    Muxing mode                              : sbtl
    Codec ID                                 : tx3g
    Duration                                 : 31 min 27 s
    Bit rate mode                            : Variable
    Bit rate                                 : 5 b/s
    Stream size                              : 1.22 KiB (0%)
    Language                                 : Malayalam
    Default                                  : No
    Forced                                   : No
    Alternate group                          : 35

    Text #28
    ID                                       : 37
    Format                                   : Timed Text
    Muxing mode                              : sbtl
    Codec ID                                 : tx3g
    Duration                                 : 31 min 35 s
    Bit rate mode                            : Variable
    Bit rate                                 : 6 b/s
    Stream size                              : 1.40 KiB (0%)
    Language                                 : Thai
    Default                                  : No
    Forced                                   : No
    Alternate group                          : 36

    Text #29
    ID                                       : 38
    Format                                   : Timed Text
    Muxing mode                              : sbtl
    Codec ID                                 : tx3g
    Duration                                 : 15 min 15 s
    Bit rate mode                            : Variable
    Bit rate                                 : 3 b/s
    Stream size                              : 359 Bytes (0%)
    Language                                 : Japanese
    Default                                  : No
    Forced                                   : No
    Alternate group                          : 37

    Text #30
    ID                                       : 39
    Format                                   : Timed Text
    Muxing mode                              : sbtl
    Codec ID                                 : tx3g
    Duration                                 : 1 h 39 min
    Bit rate mode                            : Variable
    Bit rate                                 : 43 b/s
    Stream size                              : 31.3 KiB (0%)
    Language                                 : Malay
    Default                                  : No
    Forced                                   : No
    Alternate group                          : 38

    Text #31
    ID                                       : 40
    Format                                   : Timed Text
    Muxing mode                              : sbtl
    Codec ID                                 : tx3g
    Duration                                 : 1 h 39 min
    Bit rate mode                            : Variable
    Bit rate                                 : 42 b/s
    Stream size                              : 30.4 KiB (0%)
    Language                                 : Catalan
    Default                                  : No
    Forced                                   : No
    Alternate group                          : 39

    Text #32
    ID                                       : 41
    Format                                   : Timed Text
    Muxing mode                              : sbtl
    Codec ID                                 : tx3g
    Duration                                 : 1 h 39 min
    Bit rate mode                            : Variable
    Bit rate                                 : 45 b/s
    Stream size                              : 32.7 KiB (0%)
    Language                                 : Danish
    Default                                  : No
    Forced                                   : No
    Alternate group                          : 40





    ONLINE

    CZ dabing






    CZ titulky









    Lee67, SAC1152, kelot, Benysex, MilanM3, Loffi, sgabi8888, filipp69, filipp69, Jaty_CZ,

    + Pridaj vlastnu verziu tohto torrentu +


    Upozornenie:
    Ziadny zo zobrazených súborov sa nenachádza na tomto serveri. Server slúzi len k síreniu vlastnorucne vytvorených aplikácií, videí, hudby ai. Autori stránok nenesú ziadnu zodpovednost za zverejnené odkazy, komentáre a obsah súborov. Vsetky komentáre, odkazy, súbory ktoré by svojou povahou mohli byt v rozpore zo zákonmi sem vkladáte na vlastnú zodpovednost. Autori stránok si vyhradzujú právo cenzúry odkazov, komentárov príp. súborov, ktoré by svojou povahou mohli byt v rozpore zo zákonmi a dobrými mravmi. Dodrzujte pravidlá!


    No comments...


    Back

    Na serveru se nenalézají zádne soubory. Za odkazy jsou výhradně zodpovědní uzivatelé a návstěvníci tohoto trackeru. Administrátor není zodpovědný za pridaný obsah ani za skody zpusobené uzivateli. Nesmíte pouzívat tuto webovou stránku pro distribuovaní nebo download zádného materiálu pokud nemáte povolení od príslusného vlastníka práv. Uzivatelé jsou zodpovědní za dodrzování těchto pravidel a podmínek. Owner má právo kdykoliv změnit pravidla tohoto trackeru.

    [ Script trval: 0.102 sec. ] - [ GZIP: enabled ]
    Je zhruba 02:30
    memcache

    TOPlist