Tvoj účet nieje VIP.
Preto sú tvoje funkcie a možnosti značne obmedzené.
Pre aktiváciu VIP klikni sem.

The Sandman (S01)(CZ/EN)(2022)(1080p)(WebRip) = CSFD 75% | SkTorrent.eu

Cz-SkTorrent open Tracker, na volné zdielanie súborov. Pridajte sa k nasej komunite a získajte pristup k tisícom torrentov.

  • vysoká rýchlost
  • úplne zdarma
  • prevazne Slovenska a Ceska scena
  • ste tu s nami uz 5 rokov - Dakujeme
  • Vitaj Guest (Login) Ako stahovat
    torrenty?
    Torrenty:
    v1 textová
    v2 obrázková
    v3 online filmy
    Ako sa stat
    Uploaderom
    Online
    Filmy
    Forum
    Pravidlá
    BitTorrent
    klient
    Meno: Heslo:
    Zaregistrovat
    Po zaregistrovaní mozte volne stahovat
    Zabudol som heslo

    Torrent's details
    The Sandman (S01)(CZ/EN)(2022)(1080p)(WebRip) = CSFD 75% Názov:The Sandman (S01)(CZ/EN)(2022)(1080p)(WebRip) = CSFD 75% Hodnocení: Stiahnut
    Pozriet Online
    Kategória:Seriál Velikost:8.5 GB BitTorrent klient
    Pridaný: Súbory:
    Skontrolován:2022-08-05 Peerov:199 (Seed: 190, Leech: 9)
    Zaner:Drama,Fantasy,Horor,Sci-Fi Uploader:Uvidis, az ked budes
    VIP
    Kúp nám Pivo 1,10€

    Kúp nám Pivo
    Podporte nas na Facebooku !
    Pridaj do zalozky
    Pridaj do zalozky











    Drama / Fantasy / Horor / Sci-Fi
    USA, 2022, 8 h 4 min (Minutáž: 38–54 min)


    Video: 1080p MKV
    Audio : CZ/EN Dabing - E-AC-3 5.1- 640 kb/s
    Titulky : CZ/EN + forced

    Tvůrci: Neil Gaiman, David S. Goyer, Allan Heinberg
    Režie: Jamie Childs, Mike Barker
    Předloha: Neil Gaiman (komiks)
    Scénář: David S. Goyer, Jack Thorne, Ameni Rozsa, Alexander Newman-Wise
    Kamera: George Steel, Will Baldy
    Hudba: David Buckley
    Hrají: Tom Sturridge, Gwendoline Christie, Charles Dance, Boyd Holbrook, Jenna Coleman, Vivienne Acheampong, Sanjeev Bhaskar, Asim Chaudhry,
    Produkce: Iain Smith, Ameni Rozsa, Samson Mucke, Alexander Newman-Wise
    Střih: Jamin Bricker
    Zvuk: Aaron Glascock
    Scénografie: Jon Gary Steele, Sandra Phillips, Luke Whitelock, Lisa Chugg
    Kostýmy: Sarah Arthur

    Náhled








    Existuje svět, kam se dostaneme, jenom když zavřeme oči a usneme – říká se mu Snění. A Pán snů Sandman (Tom Sturridge) tam umí zhmotnit naše nejhorší noční můry a představy. Když Sen nečekaně padne do zajetí, ve kterém stráví sto let, vyvolá jeho nepřítomnost dlouhou řadu událostí, které navždy promění svět spících i bdících. Sen se proto vydává na putování mezi světy i v čase a napravuje chyby, které udělal za dobu svojí dlouhé existence, musí znovu prozkoumat, kdo je přítel, a kdo nepřítel, a poznává taky nové bytosti – ať už kosmické nebo ze světa lidí. (Netflix)



    Formát                                   : Matroska
    Format version                           : Version 4
    Velikost souboru                         : 1,08 GiB
    Duration                                 : 54 min 10 s
    Overall bit rate mode                    : Variable
    Celkový BitRate                          : 2 851 kb/s
    Název filmu                              : Spánek spravedlivých
    Description                              : Morfeus v bdělém světě hledá uprchlou noční můru. Stane se přitom ale obětí okultisty Rodericka Burgesse, který chce povolat a uvěznit Smrt.
    Použitý software                         : Lavf58.45.100
    Enkódoval                                : Lavf58.45.100
    ErrorDetectionType                       : Per level 1
    EPISODE_ID                               : 1
    SEASON_NUMBER                            : 1
    SHOW                                     : Sandman

    Video
    ID                                       : 1
    Formát                                   : AVC
    Formát/Info                              : Advanced Video Codec
    Format profile                           : High@L4
    Format settings                          : CABAC / 4 Ref Frames
    Format settings, CABAC                   : Ano
    Format settings, Reference frames        : 4 frames
    Codec ID                                 : V_MPEG4/ISO/AVC
    Duration                                 : 54 min 9 s
    Bit rate mode                            : Variable
    Bit rate                                 : 2 027 kb/s
    Maximum bit rate                         : 20,0 Mb/s
    Šířka                                    : 1 920pixely
    Výška                                    : 1 080pixely
    Poměr stran                              : 16:9
    Frame rate mode                          : Constant
    Frame rate                               : 23,976 (24000/1001) FPS
    Color space                              : YUV
    Chroma subsampling                       : 4:2:0
    Bit depth                                : 8 bits
    Scan type                                : Progressive
    Bits/(Pixel*Frame)                       : 0.041
    Stream size                              : 785 MiB (71%)
    Titul                                    : ?@GPAC2.1-DEV-rev6242-g07e35adfb-HEAD
    Enkódoval                                : x264 core 148 r2727 7d026e8
    Nastavení enkoderu                       : cabac=1 / ref=4 / deblock=1:0:0 / analyse=0x3:0x111 / me=umh / subme=10 / psy=1 / psy_rd=1.00:0.00 / mixed_ref=1 / me_range=120 / chroma_me=1 / trellis=2 / 8x8dct=1 / cqm=0 / deadzone=21,11 / fast_pskip=1 / chroma_qp_offset=-2 / threads=8 / lookahead_threads=2 / sliced_threads=0 / nr=0 / decimate=1 / interlaced=0 / bluray_compat=0 / stitchable=1 / constrained_intra=0 / bframes=16 / b_pyramid=2 / b_adapt=2 / b_bias=0 / direct=3 / weightb=1 / open_gop=0 / weightp=2 / keyint=240 / keyint_min=121 / scenecut=0 / intra_refresh=0 / rc_lookahead=240 / rc=crf / mbtree=1 / crf=21.0 / qcomp=0.50 / qpmin=6 / qpmax=51 / qpstep=4 / vbv_maxrate=20000 / vbv_bufsize=25000 / crf_max=0.0 / nal_hrd=vbr / filler=0 / ip_ratio=1.40 / aq=1:0.80
    Default                                  : Ano
    Forced                                   : Ne

    Audio #1
    ID                                       : 2
    Formát                                   : E-AC-3
    Formát/Info                              : Enhanced AC-3
    Commercial name                          : Dolby Digital Plus
    Codec ID                                 : A_EAC3
    Duration                                 : 54 min 10 s
    Bit rate mode                            : Constant
    Bit rate                                 : 640 kb/s
    Kanál(y)                                 : 6 kanály
    Channel layout                           : L R C LFE Ls Rs
    Sampling rate                            : 48,0 kHz
    Frame rate                               : 31,250 FPS (1536 SPF)
    Bit depth                                : 32 bits
    Compression mode                         : Lossy
    Stream size                              : 248 MiB (22%)
    Titul                                    : čeština
    Jazyk                                    : Czech
    Service kind                             : Complete Main
    Default                                  : Ano
    Forced                                   : Ne

    Audio #2
    ID                                       : 3
    Formát                                   : E-AC-3
    Formát/Info                              : Enhanced AC-3
    Commercial name                          : Dolby Digital Plus
    Codec ID                                 : A_EAC3
    Duration                                 : 54 min 10 s
    Bit rate mode                            : Constant
    Bit rate                                 : 128 kb/s
    Kanál(y)                                 : 2 kanály
    Channel layout                           : L R
    Sampling rate                            : 48,0 kHz
    Frame rate                               : 31,250 FPS (1536 SPF)
    Bit depth                                : 32 bits
    Compression mode                         : Lossy
    Stream size                              : 49,6 MiB (4%)
    Titul                                    : angličtina [Originál]
    Jazyk                                    : English
    Service kind                             : Complete Main
    Default                                  : Ne
    Forced                                   : Ne

    Text #1
    ID                                       : 4
    Formát                                   : UTF-8
    Codec ID                                 : S_TEXT/UTF8
    Codec ID/Info                            : UTF-8 Plain Text
    Duration                                 : 52 min 2 s
    Titul                                    : čeština
    Enkódoval                                : Lavc58.91.100 srt
    Jazyk                                    : Czech
    Default                                  : Ne
    Forced                                   : Ne

    Text #2
    ID                                       : 5
    Formát                                   : UTF-8
    Codec ID                                 : S_TEXT/UTF8
    Codec ID/Info                            : UTF-8 Plain Text
    Duration                                 : 52 min 2 s
    Titul                                    : Czech [ForcedNarrative]
    Enkódoval                                : Lavc58.91.100 srt
    Jazyk                                    : Czech
    Default                                  : Ne
    Forced                                   : Ne

    Text #3
    ID                                       : 6
    Formát                                   : UTF-8
    Codec ID                                 : S_TEXT/UTF8
    Codec ID/Info                            : UTF-8 Plain Text
    Duration                                 : 50 min 31 s
    Titul                                    : angličtina [CC]
    Enkódoval                                : Lavc58.91.100 srt
    Jazyk                                    : English
    Default                                  : Ano
    Forced                                   : Ne













    Steve_Rogers, doboska, tibie, 1234DURKO, Loffi, hafohalina, drobnochov, kanar9999, alesek2012, miskyn, betynka, wanderers05, Liška4444, krok81, nguuenvantok, hudrbica,

    + Pridaj vlastnu verziu tohto torrentu +


    Upozornenie:
    Ziadny zo zobrazených súborov sa nenachádza na tomto serveri. Server slúzi len k síreniu vlastnorucne vytvorených aplikácií, videí, hudby ai. Autori stránok nenesú ziadnu zodpovednost za zverejnené odkazy, komentáre a obsah súborov. Vsetky komentáre, odkazy, súbory ktoré by svojou povahou mohli byt v rozpore zo zákonmi sem vkladáte na vlastnú zodpovednost. Autori stránok si vyhradzujú právo cenzúry odkazov, komentárov príp. súborov, ktoré by svojou povahou mohli byt v rozpore zo zákonmi a dobrými mravmi. Dodrzujte pravidlá!





    0
    jirkafa
    Ratio 1.55

    VIP

    07/08/2022 16.56.09
    Seká se mě obraz. Proč to sem dáváš v takový kvalitě !!

    0
    iceman138
    Ratio 2.69

    Member+

    06/08/2022 09.16.32
    PLS. Na tv mi vypadáva zvuk. Robí to aj Vám?? Alebo je chyba niekde u mňa ?



    Back

    Na serveru se nenalézají zádne soubory. Za odkazy jsou výhradně zodpovědní uzivatelé a návstěvníci tohoto trackeru. Administrátor není zodpovědný za pridaný obsah ani za skody zpusobené uzivateli. Rozsirovat stránku nebo její obsah bez souhlasu ownera je zakázano. Nesmíte pouzívat tuto webovou stránku pro distribuovaní nebo download zádného materiálu pokud nemáte povolení od príslusného vlastníka práv. Uzivatelé jsou zodpovědní za dodrzování těchto pravidel a podmínek. Owner má právo kdykoliv změnit pravidla tohoto trackeru.

    [ Script trval: 0.028 sec. ] - [ GZIP: enabled ]
    Je zhruba 15:33
    memcache

    TOPlist