Tvoj účet nieje VIP.
Preto sú tvoje funkcie a možnosti značne obmedzené.
Pre aktiváciu VIP klikni sem.

Scoob! (2020)(Cz/Sk/En)[720pHD] = CSFD 54% | SkTorrent.eu

Cz-SkTorrent open Tracker, na volné zdielanie súborov. Pridajte sa k nasej komunite a získajte pristup k tisícom torrentov.

  • vysoká rýchlost
  • úplne zdarma
  • prevazne Slovenska a Ceska scena
  • ste tu s nami uz 5 rokov - Dakujeme
  • Vitaj Guest (Login) Ako stahovat
    torrenty?
    Torrenty:
    v1 textová
    v2 obrázková
    v3 online filmy
    Ako sa stat
    Uploaderom
    Online
    Filmy
    Forum
    Pravidlá
    BitTorrent
    klient
    Meno: Heslo:
    Zaregistrovat
    Po zaregistrovaní mozte volne stahovat
    Zabudol som heslo

    Torrent's details
    Scoob! (2020)(Cz/Sk/En)[720pHD] = CSFD 54% Názov:Scoob! (2020)(Cz/Sk/En)[720pHD] = CSFD 54% Hodnocení: Stiahnut
    Pozriet Online
    Kategória:Filmy Kreslené Velikost:5.1 GB BitTorrent klient
    Pridaný: Súbory:
    Skontrolován:2020-09-11 Peerov:20 (Seed: 20, Leech: 0)
    Zaner:Animovany,Dobrodruzny,Komedie,Rodinny Uploader:Uvidis, az ked budes
    VIP
    Kúp nám Pivo 1,10€

    Kúp nám Pivo
    Podporte nas na Facebooku !
    Pridaj do zalozky
    Pridaj do zalozky




    Jazyk:Cz,Sk,En
    Titulky:Cz,Cz force,Sk force,En
    Rok:2020
    Delka:94min
    Žanr:Animovaný / Dobrodružný / Komedie / Rodinný / Mysteriózní

    ČSFD:https://www.csfd.cz/film/708533-scoob/prehled/

    Režie: Tony Cervone
    Scénář: Matt Lieberman, Adam Sztykiel, Jack Donaldson, Derek Elliott
    Hudba: Junkie XL
    Hrají: Will Forte, Mark Wahlberg, Jason Isaacs, Gina Rodriguez, Zac Efron, Amanda Seyfried, Kiersey Clemons, Ken Jeong, Tracy Morgan, Frank Welker, Iain Armitage, Mckenna Grace, Pierce Gagnon, Ariana Greenblatt, Simon Cowell, Christina Hendricks, Henry Winkler, John DiMaggio, Kevin Heffernan, Henry Kaufman, Maya Erskine, Billy West, Don… (více)
    Producenti: Charles Roven, Richard Suckle
    Střih: Ryan Folsey, Vanara Taing
    Obsah

    První celovečerní animované dobrodružství Scooby-Dooa míří do našich kin a slibuje skvělou podívanou! Zjistěte, jak to se Scoobym všechno začalo a podpořte Záhady s.r.o. při řešení jejich nejděsivějšího případu! Film vás zavede na samotný začátek přátelství Scoobyho a Shaggyho a konečně na velkém plátně uvidíte, jak s mladými detektivy Fredem, Velmou a Daphne, založili dnes již legendární srandabandu Záhady s.r.o. Po stovkách vyřešených případů musí teď ale Scooby a jeho parta přijít na kloub nejprekérnější záhadě všech dob. Zločin totiž nikdy nespí a svět má brzy zakusit zlobu přízračného bájného psa Kerbera. Začíná napínavý závod s časem! Psapokalypsa je na spadnutí a prima parta brzy zjisťuje, že pravým klíčem k záhadě může být právě Scooby.(Vertical Ent.)
    Media info

    Unique ID                                : 222781151514863547599409070144867934659 (0xA79A16CD9A65B2D93B9C6D31CAEE21C3)
    Celý názov a cesta                       : C:\Majki Filmy\Scoob! 2020.Cz.Sk.720pHD.mkv
    Formát                                   : Matroska
    Format version                           : Version 4
    Veľkosť súboru                           : 5,13 GiB
    Trvanie                                  : 1 h 33 min
    Celkový dátový tok                       : 7 833 kb/s
    Názov filmu                              : Scoob! 2020
    Dátum zakódovania                        : UTC 2020-09-11 15:00:27
    Použitý software                         : mkvmerge v48.0.0 ('Fortress Around Your Heart') 64-bit
    Zakódoval                                : libebml v1.4.0 + libmatroska v1.6.0

    Video
    ID                                       : 6
    Formát                                   : AVC
    Formát/Info                              : Advanced Video Codec
    Profil formátu                           : High@L4.1
    Nastavenia formátu                       : CABAC / 12 Ref Frames
    Format settings, CABAC                   : Áno
    Format settings, Reference frames        : 12snímok
    Označenie kodeku                         : V_MPEG4/ISO/AVC
    Trvanie                                  : 1 h 33 min
    Dátový tok                               : 6 300 kb/s
    Šírka                                    : 1 280 pixelov
    Výška                                    : 536 pixelov
    Pomer strán                              : 2,40:1
    Režim frekvencie snímok                  : Konštantný
    Frekvencia snímok                        : 23,976 (24000/1001) snímok/sek.
    Color space                              : YUV
    Chroma subsampling                       : 4:2:0
    Bit depth                                : 8 bitov
    Scan type                                : Progresívne
    Bitov/(Bod*Snímka)                       : 0.383
    Stream size                              : 4,12 GiB (80%)
    Titul                                    : LoRD
    Zakódoval                                : x264 core 161 r3015+58M ~ LoRD                                
    Nastavenie kodéru                        : cabac=1 / ref=12 / deblock=1:-3:-3 / analyse=0x3:0x133 / me=umh / subme=10 / psy=1 / fade_compensate=0.00 / psy_rd=1.00:0.00 / mixed_ref=1 / me_range=32 / chroma_me=1 / trellis=2 / 8x8dct=1 / cqm=0 / deadzone=21,11 / fast_pskip=0 / chroma_qp_offset=-2 / threads=12 / lookahead_threads=2 / sliced_threads=0 / nr=0 / decimate=0 / interlaced=0 / bluray_compat=0 / constrained_intra=0 / fgo=0 / bframes=9 / b_pyramid=2 / b_adapt=2 / b_bias=0 / direct=3 / weightb=1 / open_gop=0 / weightp=2 / keyint=250 / keyint_min=23 / scenecut=40 / intra_refresh=0 / rc_lookahead=60 / rc=2pass / mbtree=0 / bitrate=6300 / ratetol=1.0 / qcomp=0.66 / qpmin=0:0:0 / qpmax=69:69:69 / qpstep=4 / cplxblur=20.0 / qblur=0.5 / vbv_maxrate=50000 / vbv_bufsize=62500 / nal_hrd=none / filler=0 / ip_ratio=1.20 / pb_ratio=1.20 / aq=3:0.98 / aq-sensitivity=10.00 / aq-factor=1.00:1.00:1.00 / aq2=0 / aq3=0
    Jazyk                                    : Anglicky
    Default                                  : Áno
    Forced                                   : Nie
    Color range                              : Limited
    Color primaries                          : BT.709
    Transfer characteristics                 : BT.709
    Matrix coefficients                      : BT.709

    Audio #1
    ID                                       : 2
    Formát                                   : AC-3
    Formát/Info                              : Audio Coding 3
    Commercial name                          : Dolby Digital
    Označenie kodeku                         : A_AC3
    Trvanie                                  : 1 h 33 min
    Režim dátového toku                      : Konštantný dátový tok
    Dátový tok                               : 448 kb/s
    Kanál(y)                                 : 6 kanálov
    Channel layout                           : L R C LFE Ls Rs
    Sampling rate                            : 48,0 kHz
    Frekvencia snímok                        : 31,250 snímok/sek. (1536 SPF)
    Compression mode                         : Lossy
    Stream size                              : 300 MiB (6%)
    Jazyk                                    : Česky
    Service kind                             : Complete Main
    Default                                  : Áno
    Forced                                   : Nie

    Audio #2
    ID                                       : 3
    Formát                                   : AC-3
    Formát/Info                              : Audio Coding 3
    Commercial name                          : Dolby Digital
    Označenie kodeku                         : A_AC3
    Trvanie                                  : 1 h 33 min
    Režim dátového toku                      : Konštantný dátový tok
    Dátový tok                               : 448 kb/s
    Kanál(y)                                 : 6 kanálov
    Channel layout                           : L R C LFE Ls Rs
    Sampling rate                            : 48,0 kHz
    Frekvencia snímok                        : 31,250 snímok/sek. (1536 SPF)
    Compression mode                         : Lossy
    Stream size                              : 300 MiB (6%)
    Jazyk                                    : Slovensky
    Service kind                             : Complete Main
    Default                                  : Nie
    Forced                                   : Nie

    Audio #3
    ID                                       : 7
    Formát                                   : AC-3
    Formát/Info                              : Audio Coding 3
    Commercial name                          : Dolby Digital
    Označenie kodeku                         : A_AC3
    Trvanie                                  : 1 h 33 min
    Režim dátového toku                      : Konštantný dátový tok
    Dátový tok                               : 640 kb/s
    Kanál(y)                                 : 6 kanálov
    Channel layout                           : L R C LFE Ls Rs
    Sampling rate                            : 48,0 kHz
    Frekvencia snímok                        : 31,250 snímok/sek. (1536 SPF)
    Compression mode                         : Lossy
    Stream size                              : 429 MiB (8%)
    Titul                                    : Original
    Jazyk                                    : Anglicky
    Service kind                             : Complete Main
    Default                                  : Nie
    Forced                                   : Nie

    Text #1
    ID                                       : 1
    Formát                                   : UTF-8
    Označenie kodeku                         : S_TEXT/UTF8
    Označenie kodeku/Info                    : UTF-8 Plain Text
    Trvanie                                  : 1 h 33 min
    Dátový tok                               : 62 b/s
    Count of elements                        : 1413
    Stream size                              : 42,3 kiB (0%)
    Jazyk                                    : Česky
    Default                                  : Nie
    Forced                                   : Nie

    Text #2
    ID                                       : 4
    Formát                                   : UTF-8
    Označenie kodeku                         : S_TEXT/UTF8
    Označenie kodeku/Info                    : UTF-8 Plain Text
    Trvanie                                  : 1 h 27 min
    Dátový tok                               : 0 b/s
    Count of elements                        : 27
    Stream size                              : 539 Bytov (0%)
    Jazyk                                    : Česky
    Default                                  : Áno
    Forced                                   : Áno

    Text #3
    ID                                       : 5
    Formát                                   : UTF-8
    Označenie kodeku                         : S_TEXT/UTF8
    Označenie kodeku/Info                    : UTF-8 Plain Text
    Trvanie                                  : 1 h 27 min
    Dátový tok                               : 0 b/s
    Count of elements                        : 14
    Stream size                              : 229 Bytov (0%)
    Jazyk                                    : Slovensky
    Default                                  : Nie
    Forced                                   : Nie

    Text #4
    ID                                       : 8
    Formát                                   : UTF-8
    Označenie kodeku                         : S_TEXT/UTF8
    Označenie kodeku/Info                    : UTF-8 Plain Text
    Trvanie                                  : 1 h 26 min
    Dátový tok                               : 65 b/s
    Count of elements                        : 1483
    Stream size                              : 41,9 kiB (0%)
    Titul                                    : Full
    Jazyk                                    : Anglicky
    Default                                  : Nie
    Forced                                   : Nie

    Menu
    00:00:00.000                             : en:Chapter 01
    00:07:40.460                             : en:Chapter 02
    00:15:15.748                             : en:Chapter 03
    00:25:04.085                             : en:Chapter 04
    00:34:40.203                             : en:Chapter 05
    00:44:58.779                             : en:Chapter 06
    00:53:22.532                             : en:Chapter 07
    01:01:22.095                             : en:Chapter 08
    01:10:20.382                             : en:Chapter 09
    01:19:34.352                             : en:Chapter 10
    01:27:18.066                             : en:Chapter 11


    ONLINE

    CZ dabing






    SK dabing









    corabora, martinzich, Mavo, mark1234, _GrOOt_, mimu, wlsp315, Patrik89, MarianVrab20,

    + Pridaj vlastnu verziu tohto torrentu +


    Upozornenie:
    Ziadny zo zobrazených súborov sa nenachádza na tomto serveri. Server slúzi len k síreniu vlastnorucne vytvorených aplikácií, videí, hudby ai. Autori stránok nenesú ziadnu zodpovednost za zverejnené odkazy, komentáre a obsah súborov. Vsetky komentáre, odkazy, súbory ktoré by svojou povahou mohli byt v rozpore zo zákonmi sem vkladáte na vlastnú zodpovednost. Autori stránok si vyhradzujú právo cenzúry odkazov, komentárov príp. súborov, ktoré by svojou povahou mohli byt v rozpore zo zákonmi a dobrými mravmi. Dodrzujte pravidlá!


    No comments...


    Back

    Na serveru se nenalézají zádne soubory. Za odkazy jsou výhradně zodpovědní uzivatelé a návstěvníci tohoto trackeru. Administrátor není zodpovědný za pridaný obsah ani za skody zpusobené uzivateli. Rozsirovat stránku nebo její obsah bez souhlasu ownera je zakázano. Nesmíte pouzívat tuto webovou stránku pro distribuovaní nebo download zádného materiálu pokud nemáte povolení od príslusného vlastníka práv. Uzivatelé jsou zodpovědní za dodrzování těchto pravidel a podmínek. Owner má právo kdykoliv změnit pravidla tohoto trackeru.

    [ Script trval: 0.022 sec. ] - [ GZIP: enabled ]
    BtiTracker (1.4.8) by Btiteam
    Je zhruba 06:03

    TOPlist