Tvoj účet nieje VIP.
Preto sú tvoje funkcie a možnosti značne obmedzené.
Pre aktiváciu VIP klikni sem.

Scrubs: Dokturci / Scrubs [9.serie](CZ)[TVRip](2009/2010) = CSFD 82% | SkTorrent.eu

Cz-SkTorrent open Tracker, na volné zdielanie súborov. Pridajte sa k nasej komunite a získajte pristup k tisícom torrentov.

  • vysoká rýchlost
  • úplne zdarma
  • prevazne Slovenska a Ceska scena
  • ste tu s nami uz 5 rokov - Dakujeme
  • Vitaj Guest (Login) Ako stahovat
    torrenty?
    Torrenty:
    v1 textová
    v2 obrázková
    v3 online filmy
    Ako sa stat
    Uploaderom
    Online
    Filmy
    Forum
    Pravidlá
    BitTorrent
    klient
    Meno: Heslo:
    Zaregistrovat
    Po zaregistrovaní mozte volne stahovat
    Zabudol som heslo

    Torrent's details
    Scrubs: Dokturci / Scrubs [9.serie](CZ)[TVRip](2009/2010) = CSFD 82% Názov:Scrubs: Dokturci / Scrubs [9.serie](CZ)[TVRip](2009/2010) = CSFD 82% Hodnocení: Stiahnut
    Pozriet Online
    Kategória:Seriál Velikost:2.8 GB BitTorrent klient
    Pridaný: Súbory:
    Skontrolován:2014-06-11 Peerov:2 (Seed: 0, Leech: 2)
    Zaner:Drama,Komedie Uploader:Uvidis, az ked budes
    VIP
    Kúp nám Pivo 1,10€

    Kúp nám Pivo
    Podporte nas na Facebooku !
    Pridaj do zalozky
    Pridaj do zalozky




    Scrubs: Doktůrci IX (1 - 13) (mp4) [Full PAL]

    Jazyk: cz, en
    Titulky: -
    Kvalita zvuku: AAC 96 kbps 48.000 kHz Stereo
    Kvalita videa: H.264 1280 kbps Full PAL (720x576 16:9)
    Kontejner: mp4
    Odkaz na CSFD: http://www.csfd.cz/film/93062-scrubs-dokturci/
    Odkaz na IMDb: http://www.imdb.com/title/tt0285403/
    Odkaz na Prima COOL: http://cool.iprima.cz/porady/scrubs-dokturci-0
    Rok vydání: 2009 - 2010
    Délka: 13 x 21 min
    Žánr: komedie









    Z nemocnice se stal univerzitní campus, z doktorů profesoři a ze studentů oběti mučení některých lékařů... Legendární americký sitcom (2009-2010). Hrají: Z. Braff, S. Chalkeová, D. Faison, K. Jenkins...




    9. sezóna, díly 1 - 13:
    Scrubs Doktůrci IX (1) - Náš první den ve škole (mp4) [Full PAL]
    Scrubs Doktůrci IX (2) - Náš opilý přítel (mp4) [Full PAL]
    Scrubs Doktůrci IX (3) - Naše vzory (mp4) [Full PAL]
    Scrubs Doktůrci IX (4) - Naše poslední rozhovory (mp4) [Full PAL]
    Scrubs Doktůrci IX (5) - Naše záhada (mp4) [Full PAL]
    Scrubs Doktůrci IX (6) - Naše nová parťačka (mp4) [Full PAL]
    Scrubs Doktůrci IX (7) - Naše bílé pláště (mp4) [Full PAL]
    Scrubs Doktůrci IX (8) - Naše páry (mp4) [Full PAL]
    Scrubs Doktůrci IX (9) - Naše bolestivá realita (mp4) [Full PAL]
    Scrubs Doktůrci IX (10) - Naše pravdivé lži (mp4) [Full PAL]
    Scrubs Doktůrci IX (11) - Naši drazí vůdci (mp4) [Full PAL]
    Scrubs Doktůrci IX (12) - Naše potíže s řízením (mp4) [Full PAL]
    Scrubs Doktůrci IX (13) - Naše díky (mp4) [Full PAL]








    Kvalita zvuku a videa
    General
    Complete name                            : Scrubs Doktůrci IX (1) - Náš první den ve škole.Scrubs Dokturci S09E01 - Nas prvni den ve skole.Lovok.DVB-T.x264.mp4
    Format                                   : MPEG-4
    Format profile                           : Base Media
    Codec ID                                 : isom
    File size                                : 220 MiB
    Duration                                 : 20mn 51s
    Overall bit rate mode                    : Variable
    Overall bit rate                         : 1 475 Kbps
    Encoded date                             : UTC 2013-10-17 09:57:16
    Tagged date                              : UTC 2013-10-17 09:57:16

    Video
    ID                                       : 1
    Format                                   : AVC
    Format/Info                              : Advanced Video Codec
    Format profile                           : High@L4.1
    Format settings, CABAC                   : Yes
    Format settings, ReFrames                : 4 frames
    Codec ID                                 : avc1
    Codec ID/Info                            : Advanced Video Coding
    Duration                                 : 20mn 50s
    Bit rate mode                            : Variable
    Bit rate                                 : 1 301 Kbps
    Maximum bit rate                         : 40.0 Mbps
    Width                                    : 720 pixels
    Height                                   : 576 pixels
    Display aspect ratio                     : 16:9
    Frame rate mode                          : Constant
    Frame rate                               : 25.000 fps
    Standard                                 : PAL
    Color space                              : YUV
    Chroma subsampling                       : 4:2:0
    Bit depth                                : 8 bits
    Scan type                                : Progressive
    Bits/(Pixel*Frame)                       : 0.125
    Stream size                              : 194 MiB (88%)
    Title                                    : Video
    Writing library                          : x264 core 133 r2334 a3ac64b
    Encoding settings                        : cabac=1 / ref=5 / deblock=1:-1:-1 / analyse=0x3:0x113 / me=umh / subme=8 / psy=1 / psy_rd=1.00:0.00 / mixed_ref=1 / me_range=16 / chroma_me=1 / trellis=1 / 8x8dct=1 / cqm=0 / deadzone=21,11 / fast_pskip=1 / chroma_qp_offset=-2 / threads=6 / lookahead_threads=1 / sliced_threads=0 / slices=4 / nr=0 / decimate=1 / interlaced=0 / bluray_compat=1 / constrained_intra=0 / bframes=3 / b_pyramid=1 / b_adapt=2 / b_bias=0 / direct=3 / weightb=1 / open_gop=0 / weightp=1 / keyint=48 / keyint_min=1 / scenecut=40 / intra_refresh=0 / rc_lookahead=48 / rc=2pass / mbtree=1 / bitrate=1301 / ratetol=1.0 / qcomp=0.60 / qpmin=0 / qpmax=69 / qpstep=4 / cplxblur=20.0 / qblur=0.5 / vbv_maxrate=40000 / vbv_bufsize=30000 / nal_hrd=vbr / ip_ratio=1.40 / aq=1:1.00
    Encoded date                             : UTC 2013-10-17 09:57:16
    Tagged date                              : UTC 2013-10-17 09:57:33

    Audio #1
    ID                                       : 2
    Format                                   : AAC
    Format/Info                              : Advanced Audio Codec
    Format profile                           : HE-AAC / LC
    Codec ID                                 : 40
    Duration                                 : 20mn 51s
    Bit rate mode                            : Variable
    Bit rate                                 : 86.2 Kbps
    Maximum bit rate                         : 114 Kbps
    Channel(s)                               : 2 channels
    Channel positions                        : Front: L R
    Sampling rate                            : 48.0 KHz / 24.0 KHz
    Compression mode                         : Lossy
    Delay relative to video                  : 80ms
    Stream size                              : 12.8 MiB (6%)
    Language                                 : Czech
    Encoded date                             : UTC 2013-10-17 09:57:32
    Tagged date                              : UTC 2013-10-17 09:57:33







    sasinek666,

    + Pridaj vlastnu verziu tohto torrentu +


    Upozornenie:
    Ziadny zo zobrazených súborov sa nenachádza na tomto serveri. Server slúzi len k síreniu vlastnorucne vytvorených aplikácií, videí, hudby ai. Autori stránok nenesú ziadnu zodpovednost za zverejnené odkazy, komentáre a obsah súborov. Vsetky komentáre, odkazy, súbory ktoré by svojou povahou mohli byt v rozpore zo zákonmi sem vkladáte na vlastnú zodpovednost. Autori stránok si vyhradzujú právo cenzúry odkazov, komentárov príp. súborov, ktoré by svojou povahou mohli byt v rozpore zo zákonmi a dobrými mravmi. Dodrzujte pravidlá!





    3
    XeresCZ
    Ratio 65.36

    VIP

    06/02/2021 15.22.09
    Prosím seed

    0
    sasinek666
    Ratio 2.4

    VIP

    24/01/2021 11.18.13
    Prosim seed

    2
    TheFebyck
    Ratio 1

    Clen

    02/03/2014 11.26.01
    tuto serii jsem v torrentu hledal dost dlouho a vzdy nebyla uplna nebo mela nejaky problem, konecne ted poradny torrent, diky


    Back

    Na serveru se nenalézají zádne soubory. Za odkazy jsou výhradně zodpovědní uzivatelé a návstěvníci tohoto trackeru. Administrátor není zodpovědný za pridaný obsah ani za skody zpusobené uzivateli. Rozsirovat stránku nebo její obsah bez souhlasu ownera je zakázano. Nesmíte pouzívat tuto webovou stránku pro distribuovaní nebo download zádného materiálu pokud nemáte povolení od príslusného vlastníka práv. Uzivatelé jsou zodpovědní za dodrzování těchto pravidel a podmínek. Owner má právo kdykoliv změnit pravidla tohoto trackeru.

    [ Script trval: 1.058 sec. ] - [ GZIP: enabled ]
    Je zhruba 04:08
    sql

    TOPlist