Tvoj účet nieje VIP.
Preto sú tvoje funkcie a možnosti značne obmedzené.
Pre aktiváciu VIP klikni sem.

Sedm - Se7en (1995)(Remastered)(1080p)(CZ-SK-EN) = CSFD 92% | SkTorrent.eu

Cz-SkTorrent open Tracker, na volné zdielanie súborov. Pridajte sa k nasej komunite a získajte pristup k tisícom torrentov.

  • vysoká rýchlost
  • úplne zdarma
  • prevazne Slovenska a Ceska scena
  • ste tu s nami uz 5 rokov - Dakujeme
  • Vitaj Guest (Login) Ako stahovat
    torrenty?
    Torrenty:
    v1 textová
    v2 obrázková
    v3 online filmy
    Ako sa stat
    Uploaderom
    Online
    Filmy
    Forum
    Pravidlá
    BitTorrent
    klient
    Meno: Heslo:
    Zaregistrovat
    Po zaregistrovaní mozte volne stahovat
    Zabudol som heslo

    Torrent's details
    Sedm - Se7en (1995)(Remastered)(1080p)(CZ-SK-EN) = CSFD 92% Názov:Sedm - Se7en (1995)(Remastered)(1080p)(CZ-SK-EN) = CSFD 92% Hodnocení: Stiahnut
    Pozriet Online
    Kategória:Filmy CZ/SK dabing Velikost:2.6 GB BitTorrent klient
    Pridaný: Súbory:
    Skontrolován:2021-12-20 Peerov:11 (Seed: 11, Leech: 0)
    Zaner:Krimi,Mysteriozni,Psychologicky,Thriller Uploader:Uvidis, az ked budes
    VIP
    Kúp nám Pivo 1,10€

    Kúp nám Pivo
    Podporte nas na Facebooku !
    Pridaj do zalozky
    Pridaj do zalozky








    Sedm - Se7en (1995)(Remastered)
    BluRay rip CZ/SK a púvodní dabing + CZ tit

                   










    Thriller / Krimi / Mysteriózní / Psychologický / Drama
    USA, 1995, 127 min
    Režie: David Fincher
    Scénář: Andrew Kevin Walker
    Kamera: Darius Khondji
    Hudba: Howard Shore
    Hrají: (Brad Pitt - ), (Morgan Freeman - ), Gwyneth Paltrow, Kevin Spacey, R. Lee Ermey, Richard Roundtree, John C. McGinley, Julie Araskog, Mark Boone Junior,




    Obžerství, hamižnost, lenost, smilstvo, pýcha, závist, hněv – sedm slov, sedm smrtelných hříchů, které budou potrestány sedmi vraždami. Po první z nich se pouštějí do pátrání detektivové Sommerset a Mills. První je zkušený skeptik těsně před důchodem, druhý horkokrevný mladík s věčně osamělou manželkou…   Detektiv William Somerset odchází za sedm dní do důchodu. Na oddělení za něj přichází mladý a netrpělivý detektiv David Mills. Millsova žena Tracy si nemůže ve městě, kde nikoho nezná, zvyknout. Spřátelí se s detektivem Somersetem a jen jemu prozradí, že s Davidem čeká dítě. Oba detektivové se sejdou u první vraždy náruživého jedlíka. Na zdi za ledničkou najdou nápis „obžerství“. Den nato je nalezen mrtvý vychytralý obhájce a u jeho mrtvoly krví psaný nápis „lakomost“. Zkušený Somerset si jako první uvědomí, že tím případ zdaleka nekončí







    Formát                                   : Matroska
    Format version                           : Version 4
    Velikost souboru                         : 2,57 GiB
    Duration                                 : 2 h 6 min
    Celkový BitRate                          : 2 903 kb/s
    Název filmu                              : Sedm - Se7en (1995)(Remastered)(FullHD)(1080p)(CZ-SK-EN) PHDTeam
    Encoded date                             : UTC 2021-12-16 14:10:56
    Použitý software                         : mkvmerge v63.0.0 ('Everything') 64-bit
    Enkódoval                                : libebml v1.4.2 + libmatroska v1.6.4

    Video
    ID                                       : 1
    Formát                                   : HEVC
    Formát/Info                              : High Efficiency Video Coding
    Format profile                           : Main 10@L4@Main
    Codec ID                                 : V_MPEGH/ISO/HEVC
    Duration                                 : 2 h 6 min
    Bit rate                                 : 1 727 kb/s
    Šířka                                    : 1 920pixely
    Výška                                    : 800pixely
    Poměr stran                              : 2,40:1
    Frame rate mode                          : Constant
    Frame rate                               : 23,976 (24000/1001) FPS
    Color space                              : YUV
    Chroma subsampling                       : 4:2:0
    Bit depth                                : 10 bits
    Bits/(Pixel*Frame)                       : 0.047
    Stream size                              : 1,53 GiB (59%)
    Titul                                    : Sedm - Se7en (1995)(Remastered)(FullHD)(1080p)(CZ-SK-EN) PHDTeam
    Enkódoval                                : x265 1.9+140-34a3d35c5f97:[Windows][GCC 5.3.0][64 bit] 10bit
    Nastavení enkoderu                       : wpp / ctu=64 / min-cu-size=8 / max-tu-size=32 / tu-intra-depth=1 / tu-inter-depth=1 / me=1 / subme=2 / merange=57 / no-rect / no-amp / max-merge=2 / temporal-mvp / no-early-skip / rdpenalty=0 / no-tskip / no-tskip-fast / strong-intra-smoothing / no-lossless / no-cu-lossless / no-constrained-intra / no-fast-intra / open-gop / no-temporal-layers / interlace=0 / keyint=250 / min-keyint=23 / scenecut=40 / rc-lookahead=20 / lookahead-slices=5 / bframes=8 / bframe-bias=0 / b-adapt=2 / ref=3 / limit-refs=3 / no-limit-modes / weightp / no-weightb / aq-mode=3 / qg-size=32 / aq-strength=1.00 / cbqpoffs=0 / crqpoffs=0 / rd=3 / psy-rd=2.00 / rdoq-level=0 / psy-rdoq=0.00 / no-rd-refine / signhide / deblock=0:0 / sao / no-sao-non-deblock / b-pyramid / cutree / no-intra-refresh / rc=2 / pass / bitrate=1726 / qcomp=0.60 / qpmin=0 / qpmax=51 / qpstep=4 / cplxblur=20.0 / qblur=0.5 / ipratio=1.40 / pbratio=1.30
    Default                                  : Ano
    Forced                                   : Ne

    Audio #1
    ID                                       : 2
    Formát                                   : AC-3
    Formát/Info                              : Audio Coding 3
    Commercial name                          : Dolby Digital
    Codec ID                                 : A_AC3
    Duration                                 : 2 h 6 min
    Bit rate mode                            : Constant
    Bit rate                                 : 448 kb/s
    Kanál(y)                                 : 6 kanály
    Channel layout                           : L R C LFE Ls Rs
    Sampling rate                            : 48,0 kHz
    Frame rate                               : 31,250 FPS (1536 SPF)
    Compression mode                         : Lossy
    Stream size                              : 406 MiB (15%)
    Titul                                    : CZ AC3 DD 5.1 BR 2017
    Jazyk                                    : Czech
    Service kind                             : Complete Main
    Default                                  : Ano
    Forced                                   : Ne

    Audio #2
    ID                                       : 3
    Formát                                   : AC-3
    Formát/Info                              : Audio Coding 3
    Commercial name                          : Dolby Digital
    Codec ID                                 : A_AC3
    Duration                                 : 2 h 6 min
    Bit rate mode                            : Constant
    Bit rate                                 : 192 kb/s
    Kanál(y)                                 : 2 kanály
    Channel layout                           : L R
    Sampling rate                            : 48,0 kHz
    Frame rate                               : 31,250 FPS (1536 SPF)
    Compression mode                         : Lossy
    Stream size                              : 174 MiB (7%)
    Titul                                    : SK AC3 DD 2.0 TV Markiza
    Jazyk                                    : Slovak
    Service kind                             : Complete Main
    Default                                  : Ne
    Forced                                   : Ne

    Audio #3
    ID                                       : 4
    Formát                                   : AAC LC
    Formát/Info                              : Advanced Audio Codec Low Complexity
    Codec ID                                 : A_AAC-2
    Duration                                 : 2 h 6 min
    Bit rate                                 : 529 kb/s
    Kanál(y)                                 : 6 kanály
    Channel layout                           : C L R Ls Rs LFE
    Sampling rate                            : 48,0 kHz
    Frame rate                               : 46,875 FPS (1024 SPF)
    Compression mode                         : Lossy
    Video delay                              : 20 ms
    Stream size                              : 484 MiB (18%)
    Titul                                    : EN AAC DD 5.1 BR 2011
    Jazyk                                    : English
    Default                                  : Ne
    Forced                                   : Ne

    Text #1
    ID                                       : 5
    Formát                                   : UTF-8
    Codec ID                                 : S_TEXT/UTF8
    Codec ID/Info                            : UTF-8 Plain Text
    Duration                                 : 2 h 5 min
    Bit rate                                 : 36 b/s
    Count of elements                        : 935
    Stream size                              : 33,6 KiB (0%)
    Titul                                    : cz titulky
    Jazyk                                    : Czech
    Default                                  : Ne
    Forced                                   : Ne

    Text #2
    ID                                       : 6
    Formát                                   : UTF-8
    Codec ID                                 : S_TEXT/UTF8
    Codec ID/Info                            : UTF-8 Plain Text
    Duration                                 : 2 h 0 min
    Bit rate                                 : 50 b/s
    Count of elements                        : 1529
    Stream size                              : 44,9 KiB (0%)
    Jazyk                                    : English
    Default                                  : Ne
    Forced                                   : Ne









    ONLINE











    margharethe, Manny54, Vili33, Timbrle, Mittal22,

    + Pridaj vlastnu verziu tohto torrentu +


    Upozornenie:
    Ziadny zo zobrazených súborov sa nenachádza na tomto serveri. Server slúzi len k síreniu vlastnorucne vytvorených aplikácií, videí, hudby ai. Autori stránok nenesú ziadnu zodpovednost za zverejnené odkazy, komentáre a obsah súborov. Vsetky komentáre, odkazy, súbory ktoré by svojou povahou mohli byt v rozpore zo zákonmi sem vkladáte na vlastnú zodpovednost. Autori stránok si vyhradzujú právo cenzúry odkazov, komentárov príp. súborov, ktoré by svojou povahou mohli byt v rozpore zo zákonmi a dobrými mravmi. Dodrzujte pravidlá!





    0
    hex411
    Ratio 3.75

    Member+

    22/12/2021 20.10.17
    se mi to zda nebo je tam rozjeta synchro obraz/zvuk ?

    0
    Strober
    Ratio 3.98

    Member+

    21/12/2021 21.41.10
    Zvuk je poněkud šejdrem, ale dobré...VLC to zvládá...1,2s to myslim bylo  


    --------------
    >> 21/12/2021 21.50.42
    UPLOADER: pls napiš která stopa.. dik ya info


    --------------
    >> 22/12/2021 14.25.29
    Strober: CZ...


    Back

    Na serveru se nenalézají zádne soubory. Za odkazy jsou výhradně zodpovědní uzivatelé a návstěvníci tohoto trackeru. Administrátor není zodpovědný za pridaný obsah ani za skody zpusobené uzivateli. Rozsirovat stránku nebo její obsah bez souhlasu ownera je zakázano. Nesmíte pouzívat tuto webovou stránku pro distribuovaní nebo download zádného materiálu pokud nemáte povolení od príslusného vlastníka práv. Uzivatelé jsou zodpovědní za dodrzování těchto pravidel a podmínek. Owner má právo kdykoliv změnit pravidla tohoto trackeru.

    [ Script trval: 0.029 sec. ] - [ GZIP: enabled ]
    Je zhruba 04:14
    sql

    TOPlist