Tvoj účet nieje VIP.
Preto sú tvoje funkcie a možnosti značne obmedzené.
Pre aktiváciu VIP klikni sem.

Sedm smrtelnych hrichu / Nanatsu no Taizai Fundo no Shinpan - 4. serie (2021)(JP/EN+CZtit.)[1080p][HEVC] = CSFD 81% | SkTorrent.eu

Cz-SkTorrent open Tracker, na volné zdielanie súborov. Pridajte sa k nasej komunite a získajte pristup k tisícom torrentov.

  • vysoká rýchlost
  • úplne zdarma
  • prevazne Slovenska a Ceska scena
  • ste tu s nami uz 5 rokov - Dakujeme
  • Vitaj Guest (Login) Ako stahovat
    torrenty?
    Torrenty:
    v1 textová
    v2 obrázková
    v3 online filmy
    Ako sa stat
    Uploaderom
    Online
    Filmy
    Forum
    Pravidlá
    BitTorrent
    klient
    Meno: Heslo:
    Zaregistrovat
    Po zaregistrovaní mozte volne stahovat
    Zabudol som heslo

    Torrent's details
    Sedm smrtelnych hrichu / Nanatsu no Taizai Fundo no Shinpan - 4. serie (2021)(JP/EN+CZtit.)[1080p][HEVC] = CSFD 81% Názov:Sedm smrtelnych hrichu / Nanatsu no Taizai Fundo no Shinpan - 4. serie (2021)(JP/EN+CZtit.)[1080p][HEVC] = CSFD 81% Hodnocení:N/A Stiahnut
    Pozriet Online
    Kategória:Seriál Velikost:9.2 GB BitTorrent klient
    Pridaný: Súbory:
    Skontrolován:2022-01-08 Peerov:14 (Seed: 14, Leech: 0)
    Zaner:Akcni,Animovany,Dobrodruzny,Drama Uploader:Uvidis, az ked budes
    VIP
    Kúp nám Pivo 1,10€

    Kúp nám Pivo
    Podporte nas na Facebooku !
    Pridaj do zalozky
    Pridaj do zalozky




    Sedm smrtelných hříchů / Nanatsu no Taizai Fundo no Shinpan - 4. serie (2021) = CSFD 81%



           

    Jazyk: japonský, anglický
    Titulky: české, anglické
    Zdroj tituliek: hns.sk - Hakuhódžo no Senši
    Žáner: Animovaný / Akčný / Dobrodružný / Dráma / Fantasy / Komédia
    Témy: Anime, Akční, Dobrodružné, Fantasy, Magie, Nadpřirozeno, Podle mangy, Šónen
    Japonsko, 2021, 24x24 min

    Režie: Susumu Nišizawa
    Predloha: Nakaba Suzuki (komiks)
    Scénář: Rintaró Ikeda, Jošiki Ókusa, Jurika Mijao
    Kamera:Takaši Aoki
    Hudba: Hirojuki Sawano, Kóta Jamamoto, Takafumi Wada
    Japonský dabing: Tatsuhisa Suzuki, Yuuki Kaji, Tomokazu Sugita, Jun Fukuyama, Misaki Kuno, Yuuhei Takagi, Aoi Yūki, Sora Amamiya, Maaya Sakamoto, Yuuki Kaji,....
    Anglický dabing: Benjamin Diskin, Bryce Papenbrook, Kyle Hebert, Max Mittelman, Max Mittelman, Erik Kimerer, Erica Mendez, Erika Harlacher, Lauren Landa,...

    Predtím, než začnete, pozrite si:
    1. Sedm smrtelných hříchů / Nanatsu no Taizai (2014) - 1. serie
    2. Sedm smrtelnych hrichu / Nanatsu no Taizai Imashime no Fukkatsu (2018) - 2. serie
    3. Sedm smrtelnych hrichu / Nanatsu no Taizai Kamigami no Gekirin (2019) - 3. serie

    Popis
    Meliodas pohltí přikázání, aby se mohl stát králem démonů a zachránit Elizabeth. Ban bloudí očistcem, aby spasil kapitánovu duši.





       

    Hlavní
    Format: Matroska
    Format version: Version 4
    File size: 466 MiB
    Duration: 24 min 11 s
    Overall bit rate: 2 693 kb/s
    Movie name: S05E01-EMBER
    Encoded date: UTC 2022-01-07 14:38:10
    Writing application: mkvmerge v63.0.0 ('Everything') 64-bit
    Writing library: libebml v1.4.2 + libmatroska v1.6.4
    Cover: Yes

    Video
    Format: HEVC
    Format/Info: High Efficiency Video Coding
    Format profile: Main 10@L4.1@High
    Codec ID: V_MPEGH/ISO/HEVC
    Duration: 24 min 9 s
    Bit rate: 2 257 kb/s
    Width: 1 920 pixels
    Height: 1 080 pixels
    Display aspect ratio: 16:9
    Frame rate mode: Constant
    Frame rate: 23.976 (24000/1001) FPS
    Color space: YUV
    Chroma subsampling: 4:2:0
    Bit depth: 10 bits
    Bits/(Pixel*Frame): 0.045
    Stream size: 390 MiB (84%)
    Title: Presented By EMBER
    Writing library: x265 2.4+14-bc0e9bd7c08f5ddc:[Windows][GCC 6.3.0][64 bit] 10bit: KG7x [x265.ru]
    Default: Yes
    Forced: No
    Color range: Limited
    Color primaries: BT.709
    Transfer characteristics: BT.709
    Matrix coefficients: BT.709

    Audio #1
    Format: AAC LC
    Format/Info: Advanced Audio Codec Low Complexity
    Codec ID: A_AAC-2
    Duration: 24 min 9 s
    Bit rate: 221 kb/s
    Channel(s): 2 channels
    Channel layout: L R
    Sampling rate: 48.0 kHz
    Frame rate: 46.875 FPS (1024 SPF)
    Compression mode: Lossy
    Stream size: 38.2 MiB (8%)
    Language: Japanese
    Default: Yes
    Forced: No

    Audio #2
    Format: AAC LC SBR
    Format/Info: Advanced Audio Codec Low Complexity with Spectral Band Replication
    Commercial name: HE-AAC
    Format settings: Explicit
    Codec ID: A_AAC-2
    Duration: 24 min 11 s
    Bit rate: 128 kb/s
    Channel(s): 2 channels
    Channel layout: L R
    Sampling rate: 48.0 kHz
    Frame rate: 23.438 FPS (2048 SPF)
    Compression mode: Lossy
    Delay relative to video: 20 ms
    Stream size: 22.1 MiB (5%)
    Language: English
    Default: No
    Forced: No

    Text #1
    Format: ASS
    Codec ID: S_TEXT/ASS
    Codec ID/Info: Advanced Sub Station Alpha
    Duration: 24 min 6 s
    Bit rate: 94 b/s
    Count of elements: 234
    Compression mode: Lossless
    Stream size: 16.7 KiB (0%)
    Title: Czech
    Language: Czech
    Default: Yes
    Forced: No

    Text #2
    Format: ASS
    Codec ID: S_TEXT/ASS
    Codec ID/Info: Advanced Sub Station Alpha
    Duration: 22 min 37 s
    Bit rate: 215 b/s
    Count of elements: 398
    Compression mode: Lossless
    Stream size: 35.7 KiB (0%)
    Title: Chyuu
    Language: English
    Default: No
    Forced: No


    Pre lepšie vyhľadávanie anime na webe SKT si nastavte vo vyhľadávaní kategóriu Animovany










    pohee, Agone, rst_1234, Marthy, Majkl65, Nightroad, Kulodrak, Jablonka,

    + Pridaj vlastnu verziu tohto torrentu +


    Upozornenie:
    Ziadny zo zobrazených súborov sa nenachádza na tomto serveri. Server slúzi len k síreniu vlastnorucne vytvorených aplikácií, videí, hudby ai. Autori stránok nenesú ziadnu zodpovednost za zverejnené odkazy, komentáre a obsah súborov. Vsetky komentáre, odkazy, súbory ktoré by svojou povahou mohli byt v rozpore zo zákonmi sem vkladáte na vlastnú zodpovednost. Autori stránok si vyhradzujú právo cenzúry odkazov, komentárov príp. súborov, ktoré by svojou povahou mohli byt v rozpore zo zákonmi a dobrými mravmi. Dodrzujte pravidlá!




    Uploader
    10/01/2022 11.34.14
    V ako poradí sledovať Sedm smrtelnych hrichu / Nanatsu no taizai?

    1. Sedm smrtelnych hrichu / Nanatsu no Taizai- 1. serie
    2. Sedm smrtelnych hrichu / Nanatsu no Taizai Seisen no shirushi - OVA
    3. Sedm smrtelnych hrichu / Nanatsu no Taizai Imashime no Fukkatsu - 2. serie
    4. Sedm smrtelnych hrichu Vezni z nebe / Nanatsu no Taizai Tenkuu no Torawarebito - film
    5. Sedm smrtelnych hrichu / Nanatsu no Taizai Kamigami no Gekirin - 3. serie
    6. Sedm smrtelnych hrichu / Nanatsu no Taizai Fundo no Shinpan - 4. serie
    7. Sedm smrtelnych hrichu Prokleti svetlem / Nanatsu no Taizai Hikari ni Norowareshi Mono-tachi  - film

    UPOZORNENIE:
    Filmy/série, ktoré nie sú počiarknuté, nepatria do hlavnej dejovej linky. Tie môžete i preskočiť.

    1
    semir66666
    Ratio 0.97

    Clen

    08/01/2022 11.44.59
    chcelo by to aj 1-2 seriu  


    --------------
    >> 08/01/2022 12.01.54
    UPLOADER: Tak nakoniec sa pokúsim uploadnúť i prvú a druhú sériu vo 1080p HEVC kvalite spolu s niektorými preloženými OVA epizódami. Ak sa ti nechce čakať, tak môžeš stiahnuť z:

    Prvá séria:
    https://sktorrent.eu/torrent/details.php?id=ead00c16622b134b7c90378fcf5c7ab20b5c352c

    Druhá séria:
    https://sktorrent.eu/torrent/details.php?id=7ec23e9d4815a02ebb9c41a09840e192cc560bdd


    Back

    Na serveru se nenalézají zádne soubory. Za odkazy jsou výhradně zodpovědní uzivatelé a návstěvníci tohoto trackeru. Administrátor není zodpovědný za pridaný obsah ani za skody zpusobené uzivateli. Rozsirovat stránku nebo její obsah bez souhlasu ownera je zakázano. Nesmíte pouzívat tuto webovou stránku pro distribuovaní nebo download zádného materiálu pokud nemáte povolení od príslusného vlastníka práv. Uzivatelé jsou zodpovědní za dodrzování těchto pravidel a podmínek. Owner má právo kdykoliv změnit pravidla tohoto trackeru.

    [ Script trval: 0.089 sec. ] - [ GZIP: enabled ]
    Je zhruba 18:39
    memcache

    TOPlist