Tvoj účet nieje VIP.
Preto sú tvoje funkcie a možnosti značne obmedzené.
Pre aktiváciu VIP klikni sem.

Sedm smrtelnych hrichu Prokleti svetlem / Nanatsu no Taizai Hikari ni Norowareshi Mono-tachi (2021)(JP/EN+CZtit.)[1080p] = CSFD 67% | SkTorrent.eu

Cz-SkTorrent open Tracker, na volné zdielanie súborov. Pridajte sa k nasej komunite a získajte pristup k tisícom torrentov.

  • vysoká rýchlost
  • úplne zdarma
  • prevazne Slovenska a Ceska scena
  • ste tu s nami uz 5 rokov - Dakujeme
  • Vitaj Guest (Login) Ako stahovat
    torrenty?
    Torrenty:
    v1 textová
    v2 obrázková
    v3 online filmy
    Ako sa stat
    Uploaderom
    Online
    Filmy
    Forum
    Pravidlá
    BitTorrent
    klient
    Meno: Heslo:
    Zaregistrovat
    Po zaregistrovaní mozte volne stahovat
    Zabudol som heslo

    Torrent's details
    Sedm smrtelnych hrichu Prokleti svetlem / Nanatsu no Taizai Hikari ni Norowareshi Mono-tachi (2021)(JP/EN+CZtit.)[1080p] = CSFD 67% Názov:Sedm smrtelnych hrichu Prokleti svetlem / Nanatsu no Taizai Hikari ni Norowareshi Mono-tachi (2021)(JP/EN+CZtit.)[1080p] = CSFD 67% Hodnocení:N/A Stiahnut
    Pozriet Online
    Kategória:Filmy s titulkama Velikost:2.7 GB BitTorrent klient
    Pridaný: Súbory:
    Skontrolován:2022-01-09 Peerov:14 (Seed: 14, Leech: 0)
    Zaner:Animovany Uploader:Uvidis, az ked budes
    VIP
    Kúp nám Pivo 1,10€

    Kúp nám Pivo
    Podporte nas na Facebooku !
    Pridaj do zalozky
    Pridaj do zalozky




    Sedm smrtelných hříchů: Prokletí světlem / Nanatsu no Taizai Hikari ni Norowareshi Mono-tachi (2021)



           

    Jazyk: japonský, anglický
    Titulky: české, anglické
    Zdroj tituliek: Netflix
    Žáner: Animovaný
    Témy: Anime, Akční, Dobrodružné, Fantasy, Magie, Nadpřirozeno, Podle mangy, Šónen
    Japonsko, 2021, 79 min

    Režie: Takajuki Hamana
    Predloha: Nakaba Suzuki (komiks)
    Scénář: Rintaró Ikeda
    Kamera:Tošija Kimura
    Hudba: Kóta Jamamoto, Hirojuki Sawano
    Japonský dabing: Tatsuhisa Suzuki, Yuuki Kaji, Tomokazu Sugita, Jun Fukuyama, Misaki Kuno, Yuuhei Takagi, Aoi Yūki, Sora Amamiya, Maaya Sakamoto, Yuki Kaji,...
    Anglický dabing: Benjamin Diskin, Bryce Papenbrook, Kyle Hebert, Max Mittelman, Max Mittelman, Erik Kimerer, Erica Mendez, Erika Harlacher,...

    Predtím, než začnete, pozrite si:
    1. Sedm smrtelných hříchů / Nanatsu no Taizai (2014) - 1. serie
    2. Sedm smrtelnych hrichu / Nanatsu no Taizai Imashime no Fukkatsu (2018) - 2. serie
    3. Sedm smrtelnych hrichu / Nanatsu no Taizai Kamigami no Gekirin (2019) - 3. serie (2019) - 3. serie
    4. Sedm smrtelnych hrichu / Nanatsu no Taizai Fundo no Shinpan (2021) - 4. serie

    Popis
    Meliodas a jeho parta se vracejí zpátky do akce. Čerstvě nastolený mír totiž ohrožuje mocná aliance nadpřirozených bytostí a všem hrozí zkáza.





       

    Hlavní
    Format: Matroska
    Format version: Version 4
    File size: 2.67 GiB
    Duration: 1 h 20 min
    Overall bit rate mode: Variable
    Overall bit rate: 4 739 kb/s
    Encoded date: UTC 2022-01-07 16:21:29
    Writing application: mkvmerge v63.0.0 ('Everything') 64-bit
    Writing library: libebml v1.4.2 + libmatroska v1.6.4

    Video
    Format: AVC
    Format/Info: Advanced Video Codec
    Format profile: Main@L4
    Format settings: CABAC / 3 Ref Frames
    Format settings, CABAC: Yes
    Format settings, Reference frames: 3 frames
    Codec ID: V_MPEG4/ISO/AVCDuration                                 : 1 h 20 min
    Bit rate mode: Variable
    Bit rate: 3 457 kb/s
    Nominal bit rate: 4 817 kb/s
    Maximum bit rate: 7 305 kb/s
    Width: 1 920 pixels
    Height: 1 080 pixels
    Display aspect ratio: 16:9
    Frame rate mode: Constant
    Frame rate: 23.976 (24000/1001) FPS
    Color space: YUV
    Chroma subsampling: 4:2:0
    Bit depth: 8 bits
    Scan type: Progressive
    Bits/(Pixel*Frame): 0.070
    Stream size: 1.95 GiB (73%)
    Writing library: x264 core 148 r2722 1b0121b
    Default: Yes
    Forced: No

    Audio #1
    Format: E-AC-3
    Format/Info: Enhanced AC-3
    Commercial name: Dolby Digital Plus
    Codec ID: A_EAC3
    Duration: 1 h 20 min
    Bit rate mode: Constant
    Bit rate: 640 kb/s
    Channel(s): 6 channels
    Channel layout: L R C LFE Ls Rs
    Sampling rate: 48.0 kHz
    Frame rate: 31.250 FPS (1536 SPF)
    Compression mode: Lossy
    Stream size: 369 MiB (14%)
    Title: Japanese
    Language: Japanese
    Service kind: Complete Main
    Default: Yes
    Forced: No

    Audio #2
    Format: E-AC-3
    Format/Info: Enhanced AC-3
    Commercial name: Dolby Digital Plus
    Codec ID: A_EAC3
    Duration: 1 h 20 min
    Bit rate mode: Constant
    Bit rate: 640 kb/s
    Channel(s): 6 channels
    Channel layout: L R C LFE Ls Rs
    Sampling rate: 48.0 kHz
    Frame rate: 31.250 FPS (1536 SPF)
    Compression mode: Lossy
    Stream size: 369 MiB (14%)
    Title: English
    Language: English
    Service kind: Complete Main
    Default: No
    Forced: No

    Text #1
    Format: UTF-8
    Codec ID: S_TEXT/UTF8
    Codec ID/Info: UTF-8 Plain Text
    Duration: 1 h 19 min
    Bit rate: 55 b/s
    Count of elements: 1102
    Stream size: 31.9 KiB (0%)
    Title: Czech
    Language: Czech
    Default: Yes
    Forced: No

    Text #2
    Format: UTF-8
    Codec ID: S_TEXT/UTF8
    Codec ID/Info: UTF-8 Plain Text
    Duration: 1 h 19 min
    Bit rate: 53 b/s
    Count of elements: 1101
    Stream size: 30.8 KiB (0%)
    Title: English
    Language: English
    Default: No
    Forced: No


    Pre lepšie vyhľadávanie anime na webe SKT si nastavte vo vyhľadávaní kategóriu Animovany








    Marthy, pohee, Miira,

    + Pridaj vlastnu verziu tohto torrentu +


    Upozornenie:
    Ziadny zo zobrazených súborov sa nenachádza na tomto serveri. Server slúzi len k síreniu vlastnorucne vytvorených aplikácií, videí, hudby ai. Autori stránok nenesú ziadnu zodpovednost za zverejnené odkazy, komentáre a obsah súborov. Vsetky komentáre, odkazy, súbory ktoré by svojou povahou mohli byt v rozpore zo zákonmi sem vkladáte na vlastnú zodpovednost. Autori stránok si vyhradzujú právo cenzúry odkazov, komentárov príp. súborov, ktoré by svojou povahou mohli byt v rozpore zo zákonmi a dobrými mravmi. Dodrzujte pravidlá!




    Uploader
    10/01/2022 11.34.33
    V ako poradí sledovať Sedm smrtelnych hrichu / Nanatsu no taizai?

    1. Sedm smrtelnych hrichu / Nanatsu no Taizai- 1. serie
    2. Sedm smrtelnych hrichu / Nanatsu no Taizai Seisen no shirushi - OVA
    3. Sedm smrtelnych hrichu / Nanatsu no Taizai Imashime no Fukkatsu - 2. serie
    4. Sedm smrtelnych hrichu Vezni z nebe / Nanatsu no Taizai Tenkuu no Torawarebito - film
    5. Sedm smrtelnych hrichu / Nanatsu no Taizai Kamigami no Gekirin - 3. serie
    6. Sedm smrtelnych hrichu / Nanatsu no Taizai Fundo no Shinpan - 4. serie
    7. Sedm smrtelnych hrichu Prokleti svetlem / Nanatsu no Taizai Hikari ni Norowareshi Mono-tachi  - film

    UPOZORNENIE:
    Filmy/série, ktoré nie sú počiarknuté, nepatria do hlavnej dejovej linky. Tie môžete i preskočiť.
    Uploader
    09/01/2022 20.08.26
    Anime seriál/filmy ktoré mám v pláne pridať: Komi neumí komunikovat/Komi-san wa, Komyushou desu.


    Back

    Na serveru se nenalézají zádne soubory. Za odkazy jsou výhradně zodpovědní uzivatelé a návstěvníci tohoto trackeru. Administrátor není zodpovědný za pridaný obsah ani za skody zpusobené uzivateli. Rozsirovat stránku nebo její obsah bez souhlasu ownera je zakázano. Nesmíte pouzívat tuto webovou stránku pro distribuovaní nebo download zádného materiálu pokud nemáte povolení od príslusného vlastníka práv. Uzivatelé jsou zodpovědní za dodrzování těchto pravidel a podmínek. Owner má právo kdykoliv změnit pravidla tohoto trackeru.

    [ Script trval: 0.021 sec. ] - [ GZIP: enabled ]
    Je zhruba 19:15
    sql

    TOPlist