Tvoj účet nieje VIP.
Preto sú tvoje funkcie a možnosti značne obmedzené.
Pre aktiváciu VIP klikni sem.

Senna (2010)(CZ) = CSFD 88% | SkTorrent.eu

Cz-SkTorrent open Tracker, na volné zdielanie súborov. Pridajte sa k nasej komunite a získajte pristup k tisícom torrentov.

  • vysoká rýchlost
  • úplne zdarma
  • prevazne Slovenska a Ceska scena
  • ste tu s nami uz 5 rokov - Dakujeme
  • Vitaj Guest (Login) Ako stahovat
    torrenty?
    Torrenty:
    v1 textová
    v2 obrázková
    v3 online filmy
    Ako sa stat
    Uploaderom
    Online
    Filmy
    Forum
    Pravidlá
    BitTorrent
    klient
    Meno: Heslo:
    Zaregistrovat
    Po zaregistrovaní mozte volne stahovat
    Zabudol som heslo

    Torrent's details
    Senna (2010)(CZ) = CSFD 88% Názov:Senna (2010)(CZ) = CSFD 88% Hodnocení: Stiahnut
    Pozriet Online
    Kategória:Dokument Velikost:1.5 GB BitTorrent klient
    Pridaný: Súbory:
    Skontrolován:2014-03-19 Peerov:1 (Seed: 0, Leech: 1)
    Zaner:Dokumentarny,Sportovni Uploader:Uvidis, az ked budes
    VIP
    Kúp nám Pivo 1,10€

    Kúp nám Pivo
    Podporte nas na Facebooku !
    Pridaj do zalozky
    Pridaj do zalozky






    Senna
    Senna.2010.DVDRip.XviD.AC3.CZ-iNKViZiT0R




    Dokumentární / Životopisný / Sportovní


    http://www.csfd.cz/film/291617-senna/

    Audio:
    Czech - 224 Kbps, 48.0 KHz, 16 bits, 2 channels, AC-3

    Video:
    1 837 Kbps, 720*400 (16:9), at 25.000 fps, MPEG-4 Visual (XviD)
    Titulky:
    Cz forced
    Žánr:
    Dokumentární / Životopisný / Sportovní
    Země / Rok / Délka
    Velká Británie / 2010 / 1h41m



    Format: AVI
    Format/Info: Audio Video Interleave
    Format profile: OpenDML
    File size: 1.47 GiB
    Duration: 1h 41mn
    Overall bit rate: 2 073 Kbps
    Movie name: Senna.2010.DVDRip.XviD.AC3.CZ-iNKViZiT0R
    Writing application: Lavf52.106.0
    Copyright: iNKViZiT0R

    Video
    ID: 0
    Format: MPEG-4 Visual
    Format profile: Advanced Simple@L5
    Format settings, BVOP: 3
    Format settings, QPel: No
    Format settings, GMC: No warppoints
    Format settings, Matrix: Default (MPEG)
    Muxing mode: Packed bitstream
    Codec ID: XVID
    Codec ID/Hint: XviD
    Duration: 1h 41mn
    Bit rate: 1 837 Kbps
    Width: 720 pixels
    Height: 568 pixels
    Display aspect ratio: 16:9
    Frame rate: 25.000 fps
    Color space: YUV
    Chroma subsampling: 4:2:0
    Bit depth: 8 bits
    Scan type: Progressive
    Compression mode: Lossy
    Bits/(Pixel*Frame): 0.180
    Stream size: 1.30 GiB (89%)
    Writing library: XviD 63

    Audio
    ID: 1
    Format: AC-3
    Format/Info: Audio Coding 3
    Mode extension: CM (complete main)
    Codec ID: 2000
    Duration: 1h 41mn
    Bit rate mode: Constant
    Bit rate: 224 Kbps
    Channel(s): 2 channels
    Channel positions: Front: L R
    Sampling rate: 48.0 KHz
    Bit depth: 16 bits
    Compression mode: Lossy
    Stream size: 162 MiB (11%)
    Alignment: Aligned on interleaves
    Interleave, duration: 32 ms (0.80 video frame)


    Popis:
    Film SENNA přináší skutečný příběh legendárního brazilského automobilového závodníka Ayrtona Senny, kterého mnozí považují za nejlepšího jezdce historie.
    Sledujte Sennovu velkolepou kariéru ve formuli 1; jeho fyzický a duševní vývoj na závodních okruzích i mimo ně; jeho cestu za dokonalostí i zásadní proměnu z neskutečně talentovaného nováčka, který v roce 1984 razantně vtrhl do F1, v mýty opředenou legendu, jež se ze Senny stala po tragických událostech v Imole roku 1994. Díky úzké spolupráci s rodinou závodníka a s vedením formule 1 se film SENNA stává prvním oficiálním dokumentem o jeho životě s mnoha úžasnými a dosud nepublikovanými archivními materiály.











    Blackbird, harlejkin,

    + Pridaj vlastnu verziu tohto torrentu +


    Upozornenie:
    Ziadny zo zobrazených súborov sa nenachádza na tomto serveri. Server slúzi len k síreniu vlastnorucne vytvorených aplikácií, videí, hudby ai. Autori stránok nenesú ziadnu zodpovednost za zverejnené odkazy, komentáre a obsah súborov. Vsetky komentáre, odkazy, súbory ktoré by svojou povahou mohli byt v rozpore zo zákonmi sem vkladáte na vlastnú zodpovednost. Autori stránok si vyhradzujú právo cenzúry odkazov, komentárov príp. súborov, ktoré by svojou povahou mohli byt v rozpore zo zákonmi a dobrými mravmi. Dodrzujte pravidlá!





    -3
    eMKejx
    Ratio 0.36

    Clen

    22/10/2019 11.58.02
    prosim ma niekto?


    Back

    Na serveru se nenalézají zádne soubory. Za odkazy jsou výhradně zodpovědní uzivatelé a návstěvníci tohoto trackeru. Administrátor není zodpovědný za pridaný obsah ani za skody zpusobené uzivateli. Rozsirovat stránku nebo její obsah bez souhlasu ownera je zakázano. Nesmíte pouzívat tuto webovou stránku pro distribuovaní nebo download zádného materiálu pokud nemáte povolení od príslusného vlastníka práv. Uzivatelé jsou zodpovědní za dodrzování těchto pravidel a podmínek. Owner má právo kdykoliv změnit pravidla tohoto trackeru.

    [ Script trval: 0.021 sec. ] - [ GZIP: enabled ]
    Je zhruba 04:31
    sql

    TOPlist