Tvoj účet nieje VIP.
Preto sú tvoje funkcie a možnosti značne obmedzené.
Pre aktiváciu VIP klikni sem.

Sexy 40 / Rebound, The (2009)(CZ) = CSFD 66% | SkTorrent.eu

Cz-SkTorrent open Tracker, na volné zdielanie súborov. Pridajte sa k nasej komunite a získajte pristup k tisícom torrentov.

  • vysoká rýchlost
  • úplne zdarma
  • prevazne Slovenska a Ceska scena
  • ste tu s nami uz 5 rokov - Dakujeme
  • Vitaj Guest (Login) Ako stahovat
    torrenty?
    Torrenty:
    v1 textová
    v2 obrázková
    v3 online filmy
    Ako sa stat
    Uploaderom
    Online
    Filmy
    Forum
    Pravidlá
    BitTorrent
    klient
    Meno: Heslo:
    Zaregistrovat
    Po zaregistrovaní mozte volne stahovat
    Zabudol som heslo

    Torrent's details
    Sexy 40 / Rebound, The (2009)(CZ) = CSFD 66% Názov:Sexy 40 / Rebound, The (2009)(CZ) = CSFD 66% Hodnocení: Stiahnut
    Pozriet Online
    Kategória:Filmy CZ/SK dabing Velikost:698.1 MB BitTorrent klient
    Pridaný: Súbory:
    Skontrolován:2014-02-11 Peerov:0 (Seed: 0, Leech: 0)
    Zaner:Komedie,Romanticky Uploader:Uvidis, az ked budes
    VIP
    Kúp nám Pivo 1,10€

    Kúp nám Pivo
    Podporte nas na Facebooku !
    Pridaj do zalozky
    Pridaj do zalozky





    Sexy 40 / Rebound, The (2009)
    Jazyk: Česky
    Titulky: Ne
    Odkaz na CSFD: http://www.csfd.cz/film/242689-sexy-40
    Rok vydání: 2009
    Délka: 1h 35mn
    Žánr: Komedie / Romantický






    Popis:

    Sandy (Catherine Zeta-Jones) je šťastně vdaná, má dvě děti a v životě jí nic nechybí. Jednoho dne však odhalí nevěru manžela a rozhodne se udělat rázné kroky. Rozvod, stěhování a hlavně se přes to dostat. Po nějaké době je čas začít randit a není nad to spravit si chuť na pětadvacetiletém mladíkovi Aramovi ((Justin Bartha - )).

    Režie: Bart Freundlich
    Hrají: Catherine Zeta-Jones, (Justin Bartha - ), John Schneider, Lynn Whitfield, Art Garfunkel, Sam Robards, Rob Kerkovich, Andrew Cherry, Kelly Gould, Kate Jennings Grant, Jake Cherry, Stephanie Szostak, Nick Poltoranin, James P. Anderson, Quarles Antoine, Peter Francis James, Joanna Gleason, Fatima Ptacek, Samantha Ivers, Jennifer Butler

    Screen:

    Media info:Format                           : AVI
    bFormat/Info: Audio Video Interleave
    File size: 698 MiB
    Duration: 1h 35mn
    Overall bit rate: 1 027 Kbps
    Writing application: VirtualDubMod 1.5.10.1 (build 2424/release)
    Writing library: VirtualDubMod build 2424/release

    Video
    ID: 0
    Format: MPEG-4 Visual
    Format profile: Advanced Simple@L5
    Format settings, BVOP: Yes
    Format settings, QPel: No
    Format settings, GMC: No warppoints
    Format settings, Matrix: Default (H.263)
    Codec ID: XVID
    Codec ID/Hint: XviD
    Duration: 1h 35mn
    Bit rate: 890 Kbps
    Width: 640 pixels
    Height: 352 pixels
    Display aspect ratio: 16:9
    Frame rate: 23.976 fps
    Color space: YUV
    Chroma subsampling: 4:2:0
    Bit depth: 8 bits
    Scan type: Progressive
    Bits/(Pixel*Frame): 0.165
    Stream size: 605 MiB (87%)
    Writing library: XviD 1.2.1 (UTC 2008-12-04)

    Audio
    ID: 1
    Format: MPEG Audio
    Format version: Version 1
    Format profile: Layer 3
    Mode: Joint stereo
    Mode extension: MS Stereo
    Codec ID: 55
    Codec ID/Hint: MP3
    Duration: 1h 34mn
    Bit rate mode: Constant
    Bit rate: 128 Kbps
    Channel(s): 2 channels
    Sampling rate: 48.0 KHz
    Stream size: 86.7 MiB (12%)
    Alignment: Aligned on interleaves
    Interleave, duration: 42 ms (1.00 video frame)
    Interleave, preload duration: 504 ms
    Writing library                  : LAME3.98 (beta)


    Za bodíky vřelé díky..poděkování potěší!!




    ONLINE

    CZ dabing






    SK dabing









    asd1234563546543, HeDGe_HoG, skslezska1922,

    + Pridaj vlastnu verziu tohto torrentu +


    Upozornenie:
    Ziadny zo zobrazených súborov sa nenachádza na tomto serveri. Server slúzi len k síreniu vlastnorucne vytvorených aplikácií, videí, hudby ai. Autori stránok nenesú ziadnu zodpovednost za zverejnené odkazy, komentáre a obsah súborov. Vsetky komentáre, odkazy, súbory ktoré by svojou povahou mohli byt v rozpore zo zákonmi sem vkladáte na vlastnú zodpovednost. Autori stránok si vyhradzujú právo cenzúry odkazov, komentárov príp. súborov, ktoré by svojou povahou mohli byt v rozpore zo zákonmi a dobrými mravmi. Dodrzujte pravidlá!


    No comments...


    Back

    Na serveru se nenalézají zádne soubory. Za odkazy jsou výhradně zodpovědní uzivatelé a návstěvníci tohoto trackeru. Administrátor není zodpovědný za pridaný obsah ani za skody zpusobené uzivateli. Rozsirovat stránku nebo její obsah bez souhlasu ownera je zakázano. Nesmíte pouzívat tuto webovou stránku pro distribuovaní nebo download zádného materiálu pokud nemáte povolení od príslusného vlastníka práv. Uzivatelé jsou zodpovědní za dodrzování těchto pravidel a podmínek. Owner má právo kdykoliv změnit pravidla tohoto trackeru.

    [ Script trval: 0.022 sec. ] - [ GZIP: enabled ]
    Je zhruba 12:28
    sql

    TOPlist