Tvoj účet nieje VIP.
Preto sú tvoje funkcie a možnosti značne obmedzené.
Pre aktiváciu VIP klikni sem.

Seznamte se, Joe Black / Meet Joe Black (1998)(CZ) = CSFD 78% | SkTorrent.eu

Cz-SkTorrent open Tracker, na volné zdielanie súborov. Pridajte sa k nasej komunite a získajte pristup k tisícom torrentov.

  • vysoká rýchlost
  • úplne zdarma
  • prevazne Slovenska a Ceska scena
  • ste tu s nami uz 5 rokov - Dakujeme
  • Vitaj Guest (Login) Ako stahovat
    torrenty?
    Torrenty:
    v1 textová
    v2 obrázková
    v3 online filmy
    Ako sa stat
    Uploaderom
    Online
    Filmy
    Forum
    Pravidlá
    BitTorrent
    klient
    Meno: Heslo:
    Zaregistrovat
    Po zaregistrovaní mozte volne stahovat
    Zabudol som heslo

    Torrent's details
    Seznamte se, Joe Black  / Meet Joe Black (1998)(CZ) = CSFD 78% Názov:Seznamte se, Joe Black / Meet Joe Black (1998)(CZ) = CSFD 78% Hodnocení: Stiahnut
    Pozriet Online
    Kategória:Filmy CZ/SK dabing Velikost:760.1 MB BitTorrent klient
    Pridaný: Súbory:
    Skontrolován:2014-02-08 Peerov:0 (Seed: 0, Leech: 0)
    Zaner:Drama,Fantasy,Mysteriozni,Romanticky Uploader:Uvidis, az ked budes
    VIP
    Kúp nám Pivo 1,10€

    Kúp nám Pivo
    Podporte nas na Facebooku !
    Pridaj do zalozky
    Pridaj do zalozky





    Seznamte se, Joe Black



    Jazyk: Cz
    Titulky: Ne
    Odkaz na CSFD: http://www.csfd.cz/film/933-seznamte-se-joe-black
    http://www.csfd.cz/film/933-seznamte-se-joe-black/
    Rok vydání: USA, 1998
    Délka: 178 min
    Žánr: Fantasy / Mysteriózní / Romantický





    Režie: Martin Brest

    Hrají:

    (Brad Pitt - ), Anthony Hopkins, Claire Forlani, Jake Weber, Marcia Gay Harden, Jeffrey Tambor, Marylouise Burke, Jeffrey Corazzini






    Mediální magnát William Parrish si užívá života plnými doušky. I pro něho i však jednoho dne příjde Smrt. Ta mu ale udělá zcela vyjímečnou nabídku - časový odklad za možnost přiučit se něco o lidech. V podobě sympatického světlovlasého mladíka, který si říká Joe, tak Smrt vstoupí nejen do Parrishova života, ale i do života jeho krásné dcery. Tím, že se dívka do Joea zamiluje, se vše mění. Smrt v lidském těle poznává, co je to láska a hrozivá osudovost budoucnosti náhle dostává pro všechny nový rozměr.




    Media InfoFormat/Info    : Audio Video Interleave
    File size: 760 MiB
    Duration: 2h 52mn
    Overall bit rate: 815 Kbps
    Movie name: SEZNAMTE_SE_JOE_BLACK.Title2.DVDRip
    Writing application: Lavf52.33.0
    Original source form/Name: SEZNAMTE_SE_JOE_BLACK

    Video
    ID: 0
    Format: MPEG-4 Visual
    Format profile: Simple@L3
    Format settings, BVOP: No
    Format settings, QPel: No
    Format settings, GMC: No warppoints
    Format settings, Matrix: Default (H.263)
    Codec ID: XVID
    Codec ID/Hint: XviD
    Duration: 2h 52mn
    Bit rate: 638 Kbps
    Width: 720 pixels
    Height: 392 pixels
    Display aspect ratio: 16:9
    Frame rate: 25.000 fps
    Color space: YUV
    Chroma subsampling: 4:2:0
    Bit depth: 8 bits
    Scan type: Progressive
    Bits/(Pixel*Frame): 0.076
    Stream size: 665 MiB (87%)
    Writing library: XviD 1.2.1 (UTC 2008-12-04)

    Audio
    ID: 1
    Format: MPEG Audio
    Format version: Version 1
    Format profile: Layer 3
    Mode: Joint stereo
    Codec ID: 55
    Codec ID/Hint: MP3
    Duration: 2h 52mn
    Bit rate mode: Constant
    Bit rate: 64.0 Kbps
    Channel(s): 2 channels
    Sampling rate: 48.0 KHz
    Stream size: 79.1 MiB (10%)
    Alignment: Aligned on interleaves
    Interleave, duration             : 24 ms (0.60 video frame)




    CZ dabing









    milanuska, ben242, MartinZetek,

    + Pridaj vlastnu verziu tohto torrentu +


    Upozornenie:
    Ziadny zo zobrazených súborov sa nenachádza na tomto serveri. Server slúzi len k síreniu vlastnorucne vytvorených aplikácií, videí, hudby ai. Autori stránok nenesú ziadnu zodpovednost za zverejnené odkazy, komentáre a obsah súborov. Vsetky komentáre, odkazy, súbory ktoré by svojou povahou mohli byt v rozpore zo zákonmi sem vkladáte na vlastnú zodpovednost. Autori stránok si vyhradzujú právo cenzúry odkazov, komentárov príp. súborov, ktoré by svojou povahou mohli byt v rozpore zo zákonmi a dobrými mravmi. Dodrzujte pravidlá!


    No comments...


    Back

    Na serveru se nenalézají zádne soubory. Za odkazy jsou výhradně zodpovědní uzivatelé a návstěvníci tohoto trackeru. Administrátor není zodpovědný za pridaný obsah ani za skody zpusobené uzivateli. Rozsirovat stránku nebo její obsah bez souhlasu ownera je zakázano. Nesmíte pouzívat tuto webovou stránku pro distribuovaní nebo download zádného materiálu pokud nemáte povolení od príslusného vlastníka práv. Uzivatelé jsou zodpovědní za dodrzování těchto pravidel a podmínek. Owner má právo kdykoliv změnit pravidla tohoto trackeru.

    [ Script trval: 0.023 sec. ] - [ GZIP: enabled ]
    Je zhruba 11:44
    sql

    TOPlist