Tvoj účet nieje VIP.
Preto sú tvoje funkcie a možnosti značne obmedzené.
Pre aktiváciu VIP klikni sem.

Show Toma a Jerryho / The Tom and Jerry Show (S01-S05)(CZ)(1080p HEVC) | SkTorrent.eu

Cz-SkTorrent open Tracker, na volné zdielanie súborov. Pridajte sa k nasej komunite a získajte pristup k tisícom torrentov.

  • vysoká rýchlost
  • úplne zdarma
  • prevazne Slovenska a Ceska scena
  • ste tu s nami uz 5 rokov - Dakujeme
  • Vitaj Guest (Login) Ako stahovat
    torrenty?
    Torrenty:
    v1 textová
    v2 obrázková
    v3 online filmy
    Ako sa stat
    Uploaderom
    Online
    Filmy
    Forum
    Pravidlá
    BitTorrent
    klient
    Meno: Heslo:
    Zaregistrovat
    Po zaregistrovaní mozte volne stahovat
    Zabudol som heslo

    Torrent's details
    Show Toma a Jerryho / The Tom and Jerry Show (S01-S05)(CZ)(1080p HEVC) Názov:Show Toma a Jerryho / The Tom and Jerry Show (S01-S05)(CZ)(1080p HEVC) Hodnocení: Stiahnut
    Pozriet Online
    Kategória:Seriál Velikost:54.5 GB BitTorrent klient
    Pridaný: Súbory:
    Skontrolován:2022-06-04 Peerov:6 (Seed: 5, Leech: 1)
    Zaner:Animovany,Komedie,Kratkometrazni Uploader:Uvidis, az ked budes
    VIP
    Kúp nám Pivo 1,10€

    Kúp nám Pivo
    Podporte nas na Facebooku !
    Pridaj do zalozky
    Pridaj do zalozky










    Animovaný / Komedie
    USA / Kanada, (2014–2021), 38 h 43 min (Minutáž: 7–10 min)

    1-5.Série - 325 dílů (Kompletní WebRip)


    Video: 1080p MKV HEVC
    Audio : CZ Dabing - AC-3 - 256 kb/s (Stereo)
    Titulky : Ne

    Režie: Darrell Van Citters
    Scénář: Irving Belateche, Darrel Campbell, Adam Beechen, Jim Praytor,
    Hudba: Vivek Maddala, John Van Tongeren
    Hrají: Stephen Stanton, Jason Alexander, Grey Griffin, Alicyn Packard, Rick Zieff, Eric Bauza, Rachael MacFarlane, Chris Parnell (vypravěč), Nickie Bryar,
    Produkce: Ashley Postlewaite
    Scénografie: Dean Burke

    Náhled








    Kdo by je neznal? Protřelý kocour Tom a chytrý myšák Jerry se vracejí v novém kabátě... (TV Nova)



    Formát                                   : Matroska
    Format version                           : Version 4
    Velikost souboru                         : 253 MiB
    Duration                                 : 10 min 54 s
    Celkový BitRate                          : 3 250 kb/s
    Název filmu                              : Spike Gets Skooled
    Description                              : Spike Gets Skooled
    Použitý software                         : Lavf58.12.100
    Enkódoval                                : Lavf58.12.100
    ErrorDetectionType                       : Per level 1
    EPISODE_ID                               : 1
    SEASON_NUMBER                            : 1
    SHOW                                     : The Tom and Jerry Show

    Video
    ID                                       : 1
    Formát                                   : HEVC
    Formát/Info                              : High Efficiency Video Coding
    Format profile                           : Main@L4@Main
    Codec ID                                 : V_MPEGH/ISO/HEVC
    Duration                                 : 10 min 54 s
    Bit rate                                 : 2 929 kb/s
    Šířka                                    : 1 920pixely
    Výška                                    : 1 080pixely
    Poměr stran                              : 16:9
    Frame rate mode                          : Constant
    Frame rate                               : 25,000 FPS
    Color space                              : YUV
    Chroma subsampling                       : 4:2:0
    Bit depth                                : 8 bits
    Bits/(Pixel*Frame)                       : 0.057
    Stream size                              : 228 MiB (90%)
    Enkódoval                                : AVC Coding
    Default                                  : Ano
    Forced                                   : Ne

    Audio
    ID                                       : 2
    Formát                                   : AC-3
    Formát/Info                              : Audio Coding 3
    Commercial name                          : Dolby Digital
    Codec ID                                 : A_AC3
    Duration                                 : 10 min 54 s
    Bit rate mode                            : Constant
    Bit rate                                 : 256 kb/s
    Kanál(y)                                 : 2 kanály
    Channel layout                           : L R
    Sampling rate                            : 48,0 kHz
    Frame rate                               : 31,250 FPS (1536 SPF)
    Bit depth                                : 16 bits
    Compression mode                         : Lossy
    Video delay                              : -5 ms
    Stream size                              : 20,0 MiB (8%)
    Titul                                    : Czech
    Jazyk                                    : Czech
    Service kind                             : Complete Main
    Default                                  : Ano
    Forced                                   : Ne













    nentudom, RumFighter, bodrobodro, valehrach, jolene,

    + Pridaj vlastnu verziu tohto torrentu +


    Upozornenie:
    Ziadny zo zobrazených súborov sa nenachádza na tomto serveri. Server slúzi len k síreniu vlastnorucne vytvorených aplikácií, videí, hudby ai. Autori stránok nenesú ziadnu zodpovednost za zverejnené odkazy, komentáre a obsah súborov. Vsetky komentáre, odkazy, súbory ktoré by svojou povahou mohli byt v rozpore zo zákonmi sem vkladáte na vlastnú zodpovednost. Autori stránok si vyhradzujú právo cenzúry odkazov, komentárov príp. súborov, ktoré by svojou povahou mohli byt v rozpore zo zákonmi a dobrými mravmi. Dodrzujte pravidlá!




    Uploader
    05/06/2022 14.36.14
    Díky , už Vám to pouštím na plno

    1
    nentudom
    Ratio 1

    VIP

    04/06/2022 20.15.35


    Back

    Na serveru se nenalézají zádne soubory. Za odkazy jsou výhradně zodpovědní uzivatelé a návstěvníci tohoto trackeru. Administrátor není zodpovědný za pridaný obsah ani za skody zpusobené uzivateli. Rozsirovat stránku nebo její obsah bez souhlasu ownera je zakázano. Nesmíte pouzívat tuto webovou stránku pro distribuovaní nebo download zádného materiálu pokud nemáte povolení od príslusného vlastníka práv. Uzivatelé jsou zodpovědní za dodrzování těchto pravidel a podmínek. Owner má právo kdykoliv změnit pravidla tohoto trackeru.

    [ Script trval: 0.043 sec. ] - [ GZIP: enabled ]
    Je zhruba 09:46
    sql

    TOPlist