Tvoj účet nieje VIP.
Preto sú tvoje funkcie a možnosti značne obmedzené.
Pre aktiváciu VIP klikni sem.

Sklenene peklo / Towering Inferno (1974)(CZ) = CSFD 85% | SkTorrent.eu

Cz-SkTorrent open Tracker, na volné zdielanie súborov. Pridajte sa k nasej komunite a získajte pristup k tisícom torrentov.

  • vysoká rýchlost
  • úplne zdarma
  • prevazne Slovenska a Ceska scena
  • ste tu s nami uz 5 rokov - Dakujeme
  • Vitaj Guest (Login) Ako stahovat
    torrenty?
    Torrenty:
    v1 textová
    v2 obrázková
    v3 online filmy
    Ako sa stat
    Uploaderom
    Online
    Filmy
    Forum
    Pravidlá
    BitTorrent
    klient
    Meno: Heslo:
    Zaregistrovat
    Po zaregistrovaní mozte volne stahovat
    Zabudol som heslo

    Torrent's details
    Sklenene peklo / Towering Inferno (1974)(CZ) = CSFD 85% Názov:Sklenene peklo / Towering Inferno (1974)(CZ) = CSFD 85% Hodnocení: Stiahnut
    Pozriet Online
    Kategória:Filmy CZ/SK dabing Velikost:2.0 GB BitTorrent klient
    Pridaný: Súbory:
    Skontrolován:2014-04-08 Peerov:0 (Seed: 0, Leech: 0)
    Zaner:Drama,Katastroficky,Thriller Uploader:Uvidis, az ked budes
    VIP
    Kúp nám Pivo 1,10€

    Kúp nám Pivo
    Podporte nas na Facebooku !
    Pridaj do zalozky
    Pridaj do zalozky






    Skleněné peklo / Towering Inferno




    <<<<< Popis děje>>>>>

    San Francisco slaví. Právě byl zprovozněn nejvyšší mrakodrap světa. Party se odehrává v nejvyšším 135. patře. Stavební firma však šetřila a zanedbala bezpečnostní opatření. Neštěstí na sebe nenechá dlouho čekat a tak uprostřed oslavy vypukne v 87. patře požár. Hosté mají odříznutou cestu, záchranářská akce začíná... Tento slavný katastrofický film, který měl premiéru 18. prosince 1974, byl natočen podle románu tendemu Scortia/Robinson. Pro věrohodné záběry v exteriéru byl postaven 30 m vysoký model mrakodrapu. Film získal 3 Oscary (kamera, střih, píseň "We May Never Love Like This Again" ) a Zlatý glóbus za mužský herecký výkon ve vedlejší roli pro Freda Astairea (postava sňatkového podvodníka).


    <<<<>>>>

    Jazyk: CZ 2.0
    Titulky: Nejsou
    Kvalita zvuku: AC-3, 2 channels, 320 Kbps
    Kvalita videa: H.263, 720x400,  1 453 Kbps
    Rok vydání: 1974
    Délka: 2:44:53
    Žánr: Katastrofický / Thriller / Drama

    Odkaz na ČSfD: http://www.csfd.cz/film/23-sklenene-peklo/

    <<<<>>>>



    <<<<>>>>
    General
    Format: AVI
    Format/Info: Audio Video Interleave
    Format profile: OpenDML
    File size: 2.05 GiB
    Duration: 2h 44mn
    Overall bit rate: 1 778 Kbps
    Writing application: MEncoder SVN-r30881(20100311-gcc4.3.3)
    Writing library: MPlayer

    Video
    ID: 0
    Format: MPEG-4 Visual
    Format profile: Advanced Simple@L5
    Format settings, BVOP: 2
    Format settings, QPel: No
    Format settings, GMC: No warppoints
    Format settings, Matrix: Default (H.263)
    Codec ID: XVID
    Codec ID/Hint: XviD
    Duration: 2h 44mn
    Bit rate: 1 453 Kbps
    Width: 720 pixels
    Height: 400 pixels
    Display aspect ratio: 16:9
    Frame rate: 23.976 fps
    Color space: YUV
    Chroma subsampling: 4:2:0
    Bit depth: 8 bits
    Scan type: Progressive
    Compression mode: Lossy
    Bits/(Pixel*Frame): 0.210
    Stream size: 1.67 GiB (82%)
    Writing library: XviD 1.2.1 (UTC 2008-12-04)

    Audio
    ID: 1
    Format: AC-3
    Format/Info: Audio Coding 3
    Format profile: Dolby Digital
    Mode extension: CM (complete main)
    Codec ID: 2000
    Duration: 2h 44mn
    Bit rate mode: Constant
    Bit rate: 320 Kbps
    Channel(s): 2 channels
    Channel positions: Front: L R
    Sampling rate: 48.0 KHz
    Bit depth: 16 bits
    Compression mode: Lossy
    Delay relative to video: 42ms
    Stream size: 377 MiB (18%)
    Alignment: Split accross interleaves
    Interleave, duration: 500 ms (11.99 video frames)
    Interleave, preload duration: 500 ms










    + Pridaj vlastnu verziu tohto torrentu +


    Upozornenie:
    Ziadny zo zobrazených súborov sa nenachádza na tomto serveri. Server slúzi len k síreniu vlastnorucne vytvorených aplikácií, videí, hudby ai. Autori stránok nenesú ziadnu zodpovednost za zverejnené odkazy, komentáre a obsah súborov. Vsetky komentáre, odkazy, súbory ktoré by svojou povahou mohli byt v rozpore zo zákonmi sem vkladáte na vlastnú zodpovednost. Autori stránok si vyhradzujú právo cenzúry odkazov, komentárov príp. súborov, ktoré by svojou povahou mohli byt v rozpore zo zákonmi a dobrými mravmi. Dodrzujte pravidlá!





    -1
    arygnoc
    Ratio 1.72

    Member+

    10/04/2014 15.21.47
    Odpovedat

    veru, aj jaso mostal na 92,55%.

    a stále nič, nikto neodosiela.


    -1
    Miwasik
    Ratio 0.34

    Clen

    10/04/2014 14.46.14
    Odpovedat

    Nejde to celé stiahnúť pri 92,5 percentách to stojí :/


    Back

    Na serveru se nenalézají zádne soubory. Za odkazy jsou výhradně zodpovědní uzivatelé a návstěvníci tohoto trackeru. Administrátor není zodpovědný za pridaný obsah ani za skody zpusobené uzivateli. Rozsirovat stránku nebo její obsah bez souhlasu ownera je zakázano. Nesmíte pouzívat tuto webovou stránku pro distribuovaní nebo download zádného materiálu pokud nemáte povolení od príslusného vlastníka práv. Uzivatelé jsou zodpovědní za dodrzování těchto pravidel a podmínek. Owner má právo kdykoliv změnit pravidla tohoto trackeru.

    [ Script trval: 0.052 sec. ] - [ GZIP: enabled ]
    BtiTracker (1.4.8) by Btiteam
    Je zhruba 10:17

    TOPlist