Tvoj účet nieje VIP.
Preto sú tvoje funkcie a možnosti značne obmedzené.
Pre aktiváciu VIP klikni sem.

Sláva je tu sníh / Dashing Through the Snow (CZ/SK/EN)(2023)(DV/HDR)(2160p)(WEB-DL) = CSFD 12% | SkTorrent.eu

Cz-SkTorrent open Tracker, na volné zdieľanie súborov. Pridajte sa k našej komunite a získajte prístup k tisícom torrentov.

  • vysoká rýchlosť
  • úplne zdarma
  • prevažne Slovenská a Česká scéna
  • ste tu s nami už 10 rokov - Ďakujeme
  • Vitaj Guest (Login) Ako stahovat
    torrenty?
    Torrenty:
    v1 textová
    v2 obrázková
    Ako sa stat
    Uploaderom
    Online
    Filmy
    Forum
    Pravidlá
    SkTSocial
    BitTorrent
    klient
    Meno: Heslo:
    Zaregistrovat
    Po zaregistrovaní mozte volne stahovat
    Zabudol som heslo

    Sláva je tu sníh / Dashing Through the Snow (CZ/SK/EN)(2023)(DV/HDR)(2160p)(WEB-DL) = CSFD 12% Názov:Sláva je tu sníh / Dashing Through the Snow (CZ/SK/EN)(2023)(DV/HDR)(2160p)(WEB-DL) = CSFD 12% Hodnocení:N/A Stiahnut
    Pozriet Online
    Kategória:UHD Filmy - Velikost:9.7 GB BitTorrent klient
    Pridaný: Súbory:
    Skontrolován:2023-11-18 Peerov:1 (Seed: 1, Leech: 0)
    Zaner:Fantasy,Komedie,Rodinny Uploader:Uvidis, az ked budes
    VIP
    Kúp nám Pivo 1,10€

    Kúp nám Pivo

    Pridaj do zalozky
    Pridaj do zalozky






    Komedie / Fantasy / Rodinný
    USA, 2023, 92 min

    ČSFD: https://www.csfd.cz/film/1420167-slava-je-tu-snih/prehled/

    Režie: Tim Story

    Scénář: Paula Pell

    Kamera: Christopher Duskin

    Hudba: Christopher Lennertz

    Hrají: Lil Rel Howery, Teyonah Parris, Ludacris, Oscar Nuñez, Zulay Henao, Ravi Patel, Mary Lynn Rajskub, Jennifer Sears, Sebastian Sozzi, Madison Skye Validum

    Produkce: Tim Story, William Packer

    Střih: David S. Clark, David Rennie

    Scénografie: Lance Totten

    Kostýmy: Salvador Pérez Jr.

    Obsah:

    Veselý a laskavý příběh o Štědrém večeru policejního psychologa z Atlanty a jeho malé dcerky, která mu pomáhá znovu objevit kouzlo vánočních svátků. Eddie Garrick je policejní psycholog a dobrák, který nemá kvůli nepříjemnému zážitku z dětství rád Vánoce. Na žádost své manželky Allison vezme na Štědrý den k sobe svou devítiletou dceru Charlotte. Otec s dcerou se brzy setkají se záhadným mužem v červeném kožichu jménem Nick. Eddie si myslí, ze veselý chlapík je pomatený a ze potřebuje odbornou pomoc. Když se ale ukáže, ze Nicka stíhá místní zkorumpovaný politik, vydává se s dcerou Charlotte na kouzelné dobrodružství, které mu dost možná vrátí víru ve Vánoce.


    Format                      : Matroska
    Format version              : Version 4
    File size                   : 9.67 GiB
    Duration                    : 1 h 29 min
    Overall bit rate            : 15.4 Mb/s
    Encoded date                : UTC 2023-11-17 22:56:39
    Writing application         : mkvmerge v80.0 ('Roundabout') 64-bit
    Writing library             : libebml v1.4.4 + libmatroska v1.7.1

    Video
    ID                          : 1
    Format                      : HEVC
    Format/Info                 : High Efficiency Video Coding
    Format profile              : Main 10@L5@High
    HDR format                  : Dolby Vision, Version 1.0, dvhe.08.06, BL+RPU, HDR10 compatible / SMPTE ST 2086, HDR10 compatible
    Codec ID                    : V_MPEGH/ISO/HEVC
    Duration                    : 1 h 29 min
    Bit rate                    : 14.1 Mb/s
    Width                       : 3 840 pixels
    Height                      : 2 160 pixels
    Display aspect ratio        : 16:9
    Frame rate mode             : Constant
    Frame rate                  : 24.000 FPS
    Color space                 : YUV
    Chroma subsampling          : 4:2:0
    Bit depth                   : 10 bits
    Bits/(Pixel*Frame)          : 0.071
    Stream size                 : 8.87 GiB (92%)
    Language                    : English
    Default                     : Yes
    Forced                      : No
    Color range                 : Limited
    Color primaries             : BT.2020
    Transfer characteristics    : PQ
    Matrix coefficients         : BT.2020 non-constant
    Mastering display color pri : BT.2020
    Mastering display luminance : min: 0.0010 cd/m2, max: 1000 cd/m2

    Audio #1
    ID                          : 2
    Format                      : E-AC-3
    Format/Info                 : Enhanced AC-3
    Commercial name             : Dolby Digital Plus
    Codec ID                    : A_EAC3
    Duration                    : 1 h 29 min
    Bit rate mode               : Constant
    Bit rate                    : 256 kb/s
    Channel(s)                  : 6 channels
    Channel layout              : L R C LFE Ls Rs
    Sampling rate               : 48.0 kHz
    Frame rate                  : 31.250 FPS (1536 SPF)
    Compression mode            : Lossy
    Stream size                 : 164 MiB (2%)
    Title                       : Čeština
    Language                    : Czech
    Service kind                : Complete Main
    Default                     : Yes
    Forced                      : Yes

    Audio #2
    ID                          : 3
    Format                      : E-AC-3
    Format/Info                 : Enhanced AC-3
    Commercial name             : Dolby Digital Plus
    Codec ID                    : A_EAC3
    Duration                    : 1 h 29 min
    Bit rate mode               : Constant
    Bit rate                    : 256 kb/s
    Channel(s)                  : 6 channels
    Channel layout              : L R C LFE Ls Rs
    Sampling rate               : 48.0 kHz
    Frame rate                  : 31.250 FPS (1536 SPF)
    Compression mode            : Lossy
    Stream size                 : 164 MiB (2%)
    Title                       : Slovenčina
    Language                    : Slovak
    Service kind                : Complete Main
    Default                     : Yes
    Forced                      : Yes

    Audio #3
    ID                          : 4
    Format                      : E-AC-3 JOC
    Format/Info                 : Enhanced AC-3 with Joint Object Coding
    Commercial name             : Dolby Digital Plus with Dolby Atmos
    Codec ID                    : A_EAC3
    Duration                    : 1 h 29 min
    Bit rate mode               : Constant
    Bit rate                    : 768 kb/s
    Channel(s)                  : 6 channels
    Channel layout              : L R C LFE Ls Rs
    Sampling rate               : 48.0 kHz
    Frame rate                  : 31.250 FPS (1536 SPF)
    Compression mode            : Lossy
    Stream size                 : 493 MiB (5%)
    Title                       : English
    Language                    : English
    Service kind                : Complete Main
    Default                     : No
    Forced                      : No
    Complexity index            : 16
    Number of dynamic objects   : 15
    Bed channel count           : 1 channel
    Bed channel configuration   : LFE

    Text #1
    ID                          : 5
    Format                      : UTF-8
    Codec ID                    : S_TEXT/UTF8
    Codec ID/Info               : UTF-8 Plain Text
    Duration                    : 1 h 21 min
    Bit rate                    : 0 b/s
    Frame rate                  : 0.002 FPS
    Count of elements           : 8
    Stream size                 : 144 Bytes (0%)
    Title                       : cs--forced--
    Language                    : Czech
    Default                     : Yes
    Forced                      : Yes

    Text #2
    ID                          : 6
    Format                      : UTF-8
    Codec ID                    : S_TEXT/UTF8
    Codec ID/Info               : UTF-8 Plain Text
    Duration                    : 1 h 24 min
    Bit rate                    : 102 b/s
    Frame rate                  : 0.340 FPS
    Count of elements           : 1729
    Stream size                 : 63.5 KiB (0%)
    Title                       : English [CC]
    Language                    : English
    Default                     : No
    Forced                      : No

    Text #3
    ID                          : 7
    Format                      : UTF-8
    Codec ID                    : S_TEXT/UTF8
    Codec ID/Info               : UTF-8 Plain Text
    Duration                    : 1 h 14 min
    Bit rate                    : 0 b/s
    Frame rate                  : 0.002 FPS
    Count of elements           : 10
    Stream size                 : 267 Bytes (0%)
    Title                       : sk--forced--
    Language                    : Slovak
    Default                     : Yes
    Forced                      : Yes

    Text #4
    ID                          : 8
    Format                      : UTF-8
    Codec ID                    : S_TEXT/UTF8
    Codec ID/Info               : UTF-8 Plain Text
    Duration                    : 1 h 28 min
    Bit rate                    : 76 b/s
    Frame rate                  : 0.279 FPS
    Count of elements           : 1484
    Stream size                 : 49.8 KiB (0%)
    Title                       : Slovenčina
    Language                    : Slovak
    Default                     : No
    Forced                      : No

    Text #5
    ID                          : 9
    Format                      : UTF-8
    Codec ID                    : S_TEXT/UTF8
    Codec ID/Info               : UTF-8 Plain Text
    Duration                    : 1 h 28 min
    Bit rate                    : 71 b/s
    Frame rate                  : 0.282 FPS
    Count of elements           : 1503
    Stream size                 : 46.4 KiB (0%)
    Title                       : Čeština
    Language                    : Czech
    Default                     : No
    Forced                      : No

    Menu
    00:10:59.583                : en:Scene 1
    00:21:17.875                : en:Scene 2
    00:35:57.833                : en:Scene 3
    00:44:27.042                : en:Scene 4
    00:54:30.417                : en:Scene 5
    01:03:25.167                : en:Scene 6
    01:16:25.542                : en:Scene 7
    01:22:47.417                : en:Credits








    Filmy CZ/SK dabing


    Upozornenie:
    Ziadny zo zobrazených súborov sa nenachádza na tomto serveri. Server slúzi len k síreniu vlastnorucne vytvorených aplikácií, videí, hudby ai. Autori stránok nenesú ziadnu zodpovednost za zverejnené odkazy, komentáre a obsah súborov. Vsetky komentáre, odkazy, súbory ktoré by svojou povahou mohli byt v rozpore zo zákonmi sem vkladáte na vlastnú zodpovednost. Autori stránok si vyhradzujú právo cenzúry odkazov, komentárov príp. súborov, ktoré by svojou povahou mohli byt v rozpore zo zákonmi a dobrými mravmi. Dodrzujte pravidlá!





    1
    nerox212
    Ratio 0.28

    Clen

    18/11/2023 00.43.45

    >> 18/11/2023 00.44.21
    nerox212: prosim seed


    --------------
    >> 18/11/2023 06.52.29
    superior89: ten film je doslova hrozný když pominu nekvalitu filmu tak nechápu proč si Disney a Netflix udělali a drží takovou propagandu LGBT a černých...


    Back

    Na serveru se nenalézají zádne soubory. Za odkazy jsou výhradně zodpovědní uzivatelé a návstěvníci tohoto trackeru. Administrátor není zodpovědný za pridaný obsah ani za skody zpusobené uzivateli. Nesmíte pouzívat tuto webovou stránku pro distribuovaní nebo download zádného materiálu pokud nemáte povolení od príslusného vlastníka práv. Uzivatelé jsou zodpovědní za dodrzování těchto pravidel a podmínek. Owner má právo kdykoliv změnit pravidla tohoto trackeru.

    [ Script trval: 0.075 sec. ] - [ GZIP: enabled ]
    Je zhruba 08:20
    sql

    TOPlist