Tvoj účet nieje VIP.
Preto sú tvoje funkcie a možnosti značne obmedzené.
Pre aktiváciu VIP klikni sem.

Sladkych sedmnact / Try Seventeen (2002)(CZ) = CSFD 56% | SkTorrent.eu

Cz-SkTorrent open Tracker, na volné zdielanie súborov. Pridajte sa k nasej komunite a získajte pristup k tisícom torrentov.

  • vysoká rýchlost
  • úplne zdarma
  • prevazne Slovenska a Ceska scena
  • ste tu s nami uz 5 rokov - Dakujeme
  • Vitaj Guest (Login) Ako stahovat
    torrenty?
    Torrenty:
    v1 textová
    v2 obrázková
    v3 online filmy
    Ako sa stat
    Uploaderom
    Online
    Filmy
    Forum
    Pravidlá
    BitTorrent
    klient
    Meno: Heslo:
    Zaregistrovat
    Po zaregistrovaní mozte volne stahovat
    Zabudol som heslo

    Torrent's details
    Sladkych sedmnact / Try Seventeen (2002)(CZ) = CSFD 56% Názov:Sladkych sedmnact / Try Seventeen (2002)(CZ) = CSFD 56% Hodnocení:N/A Stiahnut
    Pozriet Online
    Kategória:Filmy CZ/SK dabing Velikost:700.1 MB BitTorrent klient
    Pridaný: Súbory:
    Skontrolován:2014-02-08 Peerov:0 (Seed: 0, Leech: 0)
    Zaner:Drama,Komedie,Romanticky Uploader:Uvidis, az ked budes
    VIP
    Kúp nám Pivo 1,10€

    Kúp nám Pivo
    Podporte nas na Facebooku !
    Pridaj do zalozky
    Pridaj do zalozky




    Jazyk: Cesky
    Titulky: Ne.
    Rok vydani: 2002
    Delka: 96 minut
    Zanr:Komedie / Romantický / Drama
    Odkaz: http://www.csfd.cz/film/35338-sladkych-sedmnact/

    Obrazek

    MediaInfo:
    General
    Complete name                            : Z:\5. US filmy Cz dabing 87 GB\Sladkých Sedmnáct(608x336)_Cz.avi
    Format                                   : AVI
    Format/Info                              : Audio Video Interleave
    File size                                : 700 MiB
    Duration                                 : 1h 29mn
    Overall bit rate mode                    : Variable
    Overall bit rate                         : 1 092 Kbps
    Writing application                      : VirtualDubMod 1.5.4.1 (build 2178/release)
    Writing library                          : VirtualDubMod build 2178/release

    Video
    ID                                       : 0
    Format                                   : MPEG-4 Visual
    Format profile                           : Simple@L3
    Format settings, BVOP                    : No
    Format settings, QPel                    : No
    Format settings, GMC                     : No warppoints
    Format settings, Matrix                  : Default (H.263)
    Codec ID                                 : XVID
    Codec ID/Hint                            : XviD
    Duration                                 : 1h 29mn
    Bit rate                                 : 962 Kbps
    Width                                    : 608 pixels
    Height                                   : 336 pixels
    Display aspect ratio                     : 16:9
    Frame rate                               : 25.000 fps
    Color space                              : YUV
    Chroma subsampling                       : 4:2:0
    Bit depth                                : 8 bits
    Scan type                                : Progressive
    Compression mode                         : Lossy
    Bits/(Pixel*Frame)                       : 0.188
    Stream size                              : 617 MiB (88%)
    Writing library                          : XviD 0.0.09 (UTC 2003-03-25)

    Audio
    ID                                       : 1
    Format                                   : MPEG Audio
    Format version                           : Version 1
    Format profile                           : Layer 3
    Mode                                     : Joint stereo
    Mode extension                           : MS Stereo
    Codec ID                                 : 55
    Codec ID/Hint                            : MP3
    Duration                                 : 1h 29mn
    Bit rate mode                            : Variable
    Bit rate                                 : 117 Kbps
    Nominal bit rate                         : 128 Kbps
    Channel(s)                               : 2 channels
    Sampling rate                            : 48.0 KHz
    Compression mode                         : Lossy
    Stream size                              : 74.9 MiB (11%)
    Alignment                                : Aligned on interleaves
    Interleave, duration                     : 24 ms (0.60 video frame)
    Interleave, preload duration             : 486 ms
    Writing library                          : LAME3.90.
    Encoding settings                        : -m j -V 0 -q 5 -lowpass 15.3 --abr 128



    Popis:
    Matka sedmnáctiletého vysokoškoláka Jonese Dillona (ELIJAH WOOD) je alkoholička, otce nikdy nepoznal a před realitou uniká Jones nejraději do vlastního světa fantazie. Hned první školní den je vyloučen z univerzity. Pronajme si byt ve starém domě, kde bydlí i temperamentní, ale potrhlá fotografka (FRANKA POTENTE) a ctižádostivá herečka (MANDY MOORE). Jones se s nimi bezhlavě vrhá do bezstarostného života, který je jedním nekončícím večírkem plným pokušení. Ale sladkých sedmnáct netrvá věčně a tenhle nadržený postpuberťák bude muset jednou dospět. A skutečný život už možná čeká za rohem.





    + Pridaj vlastnu verziu tohto torrentu +


    Upozornenie:
    Ziadny zo zobrazených súborov sa nenachádza na tomto serveri. Server slúzi len k síreniu vlastnorucne vytvorených aplikácií, videí, hudby ai. Autori stránok nenesú ziadnu zodpovednost za zverejnené odkazy, komentáre a obsah súborov. Vsetky komentáre, odkazy, súbory ktoré by svojou povahou mohli byt v rozpore zo zákonmi sem vkladáte na vlastnú zodpovednost. Autori stránok si vyhradzujú právo cenzúry odkazov, komentárov príp. súborov, ktoré by svojou povahou mohli byt v rozpore zo zákonmi a dobrými mravmi. Dodrzujte pravidlá!


    No comments...


    Back

    Na serveru se nenalézají zádne soubory. Za odkazy jsou výhradně zodpovědní uzivatelé a návstěvníci tohoto trackeru. Administrátor není zodpovědný za pridaný obsah ani za skody zpusobené uzivateli. Rozsirovat stránku nebo její obsah bez souhlasu ownera je zakázano. Nesmíte pouzívat tuto webovou stránku pro distribuovaní nebo download zádného materiálu pokud nemáte povolení od príslusného vlastníka práv. Uzivatelé jsou zodpovědní za dodrzování těchto pravidel a podmínek. Owner má právo kdykoliv změnit pravidla tohoto trackeru.

    [ Script trval: 0.019 sec. ] - [ GZIP: enabled ]
    BtiTracker (1.4.8) by Btiteam
    Je zhruba 08:49

    TOPlist