Tvoj účet nieje VIP.
Preto sú tvoje funkcie a možnosti značne obmedzené.
Pre aktiváciu VIP klikni sem.

Slap Shot / Tvrda hra (1977)(FHD)(1080p)(Hevc)(Webdl)(EN-CZ) = CSFD 60% | SkTorrent.eu

Cz-SkTorrent open Tracker, na volné zdieľanie súborov. Pridajte sa k našej komunite a získajte prístup k tisícom torrentov.

  • vysoká rýchlosť
  • úplne zdarma
  • prevažne Slovenská a Česká scéna
  • ste tu s nami už 10 rokov - Ďakujeme
  • Vitaj Guest (Login) Ako stahovat
    torrenty?
    Torrenty:
    v1 textová
    v2 obrázková
    Ako sa stat
    Uploaderom
    Online
    Filmy
    Forum
    Pravidlá
    SkTSocial
    BitTorrent
    klient
    Meno: Heslo:
    Zaregistrovat
    Po zaregistrovaní mozte volne stahovat
    Zabudol som heslo

    Slap Shot / Tvrda hra (1977)(FHD)(1080p)(Hevc)(Webdl)(EN-CZ) = CSFD 60% Názov:Slap Shot / Tvrda hra (1977)(FHD)(1080p)(Hevc)(Webdl)(EN-CZ) = CSFD 60% Hodnocení:N/A Stiahnut
    Pozriet Online
    Kategória:Filmy CZ/SK dabing - Velikost:3.4 GB BitTorrent klient
    Pridaný: Súbory:
    Skontrolován:2023-03-02 Peerov:2 (Seed: 2, Leech: 0)
    Zaner:Komedie,Sportovni Uploader:Uvidis, az ked budes
    VIP
    Kúp nám Pivo 1,10€

    Kúp nám Pivo

    Pridaj do zalozky
    Pridaj do zalozky




    [center]







    Movie Name: Slap Shot (1977)
    IMDb Rating: 7.4/10

    Quality: 1080p (Webrip)
    Language: English (AAC 2.0 + AC3 5.1) Czech (AAC 2.0 + AC3 5.1)
    Subtitles: -
    Director: George Roy Hill
    Writers: Nancy Dowd
    Genres: Comedy | Drama | Sport |


    A failing ice hockey team finds success with outrageously violent hockey goonery.




    [/center]
    Format                                   : Matroska
    Format version                           : Version 4
    File size                                : 3.38 GiB
    Duration                                 : 1 h 57 min
    Overall bit rate                         : 4 111 kb/s
    Movie name                               : Slap Shot (1977)(FHD)(1080p)(Hevc)(Webdl)(EN-CZ) PHDTeam
    Encoded date                             : UTC 2023-02-13 14:40:12
    Writing application                      : mkvmerge v74.0.0 ('You Oughta Know') 64-bit
    Writing library                          : libebml v1.4.4 + libmatroska v1.7.1

    Video
    ID                                       : 1
    Format                                   : HEVC
    Format/Info                              : High Efficiency Video Coding
    Format profile                           : Main@L4@Main
    Codec ID                                 : V_MPEGH/ISO/HEVC
    Duration                                 : 1 h 57 min
    Bit rate                                 : 3 465 kb/s
    Width                                    : 1 920 pixels
    Height                                   : 1 080 pixels
    Display aspect ratio                     : 16:9
    Frame rate mode                          : Constant
    Frame rate                               : 30.000 FPS
    Standard                                 : Component
    Color space                              : YUV
    Chroma subsampling                       : 4:2:0
    Bit depth                                : 8 bits
    Bits/(Pixel*Frame)                       : 0.056
    Stream size                              : 2.85 GiB (84%)
    Title                                    : Slap Shot (1977)(FHD)(1080p)(Hevc)(Webdl)(EN-CZ) PHDTeam
    Default                                  : Yes
    Forced                                   : No
    Color range                              : Limited

    Audio #1
    ID                                       : 2
    Format                                   : AAC LC
    Format/Info                              : Advanced Audio Codec Low Complexity
    Codec ID                                 : A_AAC-2
    Duration                                 : 1 h 57 min
    Bit rate                                 : 128 kb/s
    Channel(s)                               : 6 channels
    Channel layout                           : C L R Ls Rs LFE
    Sampling rate                            : 44.1 kHz
    Frame rate                               : 43.066 FPS (1024 SPF)
    Compression mode                         : Lossy
    Delay relative to video                  : -46 ms
    Stream size                              : 108 MiB (3%)
    Language                                 : Czech
    Default                                  : Yes
    Forced                                   : No

    Audio #2
    ID                                       : 3
    Format                                   : AAC LC
    Format/Info                              : Advanced Audio Codec Low Complexity
    Codec ID                                 : A_AAC-2
    Duration                                 : 1 h 57 min
    Bit rate                                 : 128 kb/s
    Channel(s)                               : 6 channels
    Channel layout                           : C L R Ls Rs LFE
    Sampling rate                            : 44.1 kHz
    Frame rate                               : 43.066 FPS (1024 SPF)
    Compression mode                         : Lossy
    Delay relative to video                  : -46 ms
    Stream size                              : 108 MiB (3%)
    Language                                 : English
    Default                                  : Yes
    Forced                                   : No

    Audio #3
    ID                                       : 4
    ID in the original source medium         : 189 (0xBD)128 (0x80)
    Format                                   : AC-3
    Format/Info                              : Audio Coding 3
    Commercial name                          : Dolby Digital
    Codec ID                                 : A_AC3
    Duration                                 : 1 h 57 min
    Bit rate mode                            : Constant
    Bit rate                                 : 192 kb/s
    Channel(s)                               : 2 channels
    Channel layout                           : L R
    Sampling rate                            : 48.0 kHz
    Frame rate                               : 31.250 FPS (1536 SPF)
    Compression mode                         : Lossy
    Delay relative to video                  : -46 ms
    Stream size                              : 162 MiB (5%)
    Title                                    : Stereo
    Language                                 : Czech
    Service kind                             : Complete Main
    Default                                  : Yes
    Forced                                   : No
    Original source medium                   : DVD-Video

    Audio #4
    ID                                       : 5
    ID in the original source medium         : 189 (0xBD)129 (0x81)
    Format                                   : AC-3
    Format/Info                              : Audio Coding 3
    Commercial name                          : Dolby Digital
    Codec ID                                 : A_AC3
    Duration                                 : 1 h 57 min
    Bit rate mode                            : Constant
    Bit rate                                 : 192 kb/s
    Channel(s)                               : 2 channels
    Channel layout                           : L R
    Sampling rate                            : 48.0 kHz
    Frame rate                               : 31.250 FPS (1536 SPF)
    Compression mode                         : Lossy
    Delay relative to video                  : -46 ms
    Stream size                              : 162 MiB (5%)
    Title                                    : Stereo
    Language                                 : English
    Service kind                             : Complete Main
    Default                                  : No
    Forced                                   : No
    Original source medium                   : DVD-Video

    Text
    ID                                       : 6
    ID in the original source medium         : 189 (0xBD)32 (0x20)
    Format                                   : VobSub
    Muxing mode                              : zlib
    Codec ID                                 : S_VOBSUB
    Codec ID/Info                            : Picture based subtitle format used on DVDs
    Duration                                 : 1 h 54 min
    Bit rate                                 : 5 308 b/s
    Frame rate                               : 0.203 FPS
    Count of elements                        : 1398
    Stream size                              : 4.36 MiB (0%)
    Language                                 : Czech
    Default                                  : No
    Forced                                   : No
    Original source medium                   : DVD-Video







    Upozornenie:
    Ziadny zo zobrazených súborov sa nenachádza na tomto serveri. Server slúzi len k síreniu vlastnorucne vytvorených aplikácií, videí, hudby ai. Autori stránok nenesú ziadnu zodpovednost za zverejnené odkazy, komentáre a obsah súborov. Vsetky komentáre, odkazy, súbory ktoré by svojou povahou mohli byt v rozpore zo zákonmi sem vkladáte na vlastnú zodpovednost. Autori stránok si vyhradzujú právo cenzúry odkazov, komentárov príp. súborov, ktoré by svojou povahou mohli byt v rozpore zo zákonmi a dobrými mravmi. Dodrzujte pravidlá!


    No comments...


    Back

    Na serveru se nenalézají zádne soubory. Za odkazy jsou výhradně zodpovědní uzivatelé a návstěvníci tohoto trackeru. Administrátor není zodpovědný za pridaný obsah ani za skody zpusobené uzivateli. Nesmíte pouzívat tuto webovou stránku pro distribuovaní nebo download zádného materiálu pokud nemáte povolení od príslusného vlastníka práv. Uzivatelé jsou zodpovědní za dodrzování těchto pravidel a podmínek. Owner má právo kdykoliv změnit pravidla tohoto trackeru.

    [ Script trval: 0.069 sec. ] - [ GZIP: enabled ]
    Je zhruba 20:43
    sql

    TOPlist