Tvoj účet nieje VIP.
Preto sú tvoje funkcie a možnosti značne obmedzené.
Pre aktiváciu VIP klikni sem.

Slidilove - Sneakers (1992)(Remastered)(BluRay)(1080p)(CZ-EN) = CSFD 73% | SkTorrent.eu

Cz-SkTorrent open Tracker, na volné zdielanie súborov. Pridajte sa k nasej komunite a získajte pristup k tisícom torrentov.

  • vysoká rýchlost
  • úplne zdarma
  • prevazne Slovenska a Ceska scena
  • ste tu s nami uz 5 rokov - Dakujeme
  • Vitaj Guest (Login) Ako stahovat
    torrenty?
    Torrenty:
    v1 textová
    v2 obrázková
    v3 online filmy
    Ako sa stat
    Uploaderom
    Online
    Filmy
    Forum
    Pravidlá
    BitTorrent
    klient
    Meno: Heslo:
    Zaregistrovat
    Po zaregistrovaní mozte volne stahovat
    Zabudol som heslo

    Torrent's details
    Slidilove - Sneakers (1992)(Remastered)(BluRay)(1080p)(CZ-EN) = CSFD 73% Názov:Slidilove - Sneakers (1992)(Remastered)(BluRay)(1080p)(CZ-EN) = CSFD 73% Hodnocení:N/A Stiahnut
    Pozriet Online
    Kategória:HD Filmy Velikost:4.7 GB BitTorrent klient
    Pridaný: Súbory:
    Skontrolován:2021-07-29 Peerov:11 (Seed: 10, Leech: 1)
    Zaner:Akcni,Drama,Komedie,Krimi Uploader:Uvidis, az ked budes
    VIP
    Kúp nám Pivo 1,10€

    Kúp nám Pivo
    Podporte nas na Facebooku !
    Pridaj do zalozky
    Pridaj do zalozky








    Slidilove - Sneakers (1992)(Remastered)
    BleRay rip CZ a púvodní dabing + CZ tit

                   










    Akční / Komedie / Krimi / Drama
    USA, 1992, 126 min
    Režie: Phil Alden Robinson
    Scénář: Lawrence Lasker, Walter F. Parkes, Phil Alden Robinson
    Kamera: John Lindley
    Hudba: James Horner
    Hrají: Robert Redford, Sidney Poitier, David Strathairn, Dan Aykroyd, River Phoenix, Timothy Busfield, Eddie Jones, Mary McDonnell, Donal Logue,





    Pětice svérázných expertů vedená Martinem Bishopem si vydělává vyhledáváním chyb v bezpečnostních systémech, které pak za tučnou odměnu pomáhají postiženým firmám odstranit. Slušně rozjetý podnik se však ocitne v úzkých, když je skupina nucena přijmout nelegální zakázku Úřadu pro národní bezpečnost. Bishop nemá na výběr a práci musí vzít, protože agenti úřadu ho mají v hrsti díky počítačovému podvodu, který před lety spáchal. Donutí ho uloupit černou skříňku geniálnímu matematikovi Janekovi. Vzápětí však vyjde najevo, že skřínka je dekodérem umožňujícím proniknout do každého, i sebelépe chráněného systému a ve skutečnosti si její krádež objednala mafie. Hned po odcizení skříňky ale zjišťují, že vědec, jehož zásluhou tento vynález vznikl, zemřel. Martin Bishop a jeho kolegové si uvědomují, že jim hrozí velké nebezpečí a musí vynaložit veškeré síly, aby se jim podařilo uniknout smrti.








    Formát                                   : Matroska
    Format version                           : Version 4
    Velikost souboru                         : 4,66 GiB
    Duration                                 : 2 h 4 min
    Celkový BitRate                          : 5 344 kb/s
    Název filmu                              : Slídilové - Sneakers (1992)(Remastered)(BluRay)(1080p)(CZ-EN)(PHDTeam 2021
    Encoded date                             : UTC 2021-07-29 19:26:16
    Použitý software                         : mkvmerge v59.0.0 ('Shining Star') 64-bit
    Enkódoval                                : libebml v1.4.2 + libmatroska v1.6.4

    Video
    ID                                       : 1
    Formát                                   : HEVC
    Formát/Info                              : High Efficiency Video Coding
    Format profile                           : Main 10@L4.1@High
    Codec ID                                 : V_MPEGH/ISO/HEVC
    Duration                                 : 2 h 4 min
    Bit rate                                 : 4 696 kb/s
    Šířka                                    : 1 920pixely
    Výška                                    : 1 080pixely
    Poměr stran                              : 16:9
    Frame rate mode                          : Constant
    Frame rate                               : 23,976 (24000/1001) FPS
    Standard                                 : Component
    Color space                              : YUV
    Chroma subsampling                       : 4:2:0
    Bit depth                                : 10 bits
    Bits/(Pixel*Frame)                       : 0.094
    Stream size                              : 4,09 GiB (88%)
    Titul                                    : Slídilové - Sneakers (1992)(Remastered)(BluRay)(1080p)(CZ-EN)(PHDTeam
    Enkódoval                                : x265 0.0:[Windows][MSVC 1916][64 bit] 10bit
    Nastavení enkoderu                       : cpuid=1111039 / frame-threads=3 / numa-pools=8 / wpp / no-pmode / no-pme / no-psnr / no-ssim / log-level=2 / input-csp=1 / input-res=1920x1080 / interlace=0 / total-frames=0 / level-idc=41 / high-tier=1 / uhd-bd=0 / ref=5 / no-allow-non-conformance / repeat-headers / annexb / aud / hrd / info / hash=0 / no-temporal-layers / open-gop / min-keyint=23 / keyint=250 / gop-lookahead=0 / bframes=3 / b-adapt=2 / no-b-pyramid / bframe-bias=0 / rc-lookahead=20 / lookahead-slices=6 / scenecut=40 / radl=0 / no-intra-refresh / ctu=64 / min-cu-size=8 / no-rect / no-amp / max-tu-size=32 / tu-inter-depth=1 / tu-intra-depth=1 / limit-tu=0 / rdoq-level=0 / dynamic-rd=0.00 / no-ssim-rd / signhide / no-tskip / nr-intra=0 / nr-inter=0 / no-constrained-intra / no-strong-intra-smoothing / max-merge=2 / limit-refs=3 / no-limit-modes / me=1 / subme=2 / merange=57 / temporal-mvp / weightp / no-weightb / no-analyze-src-pics / deblock=0:0 / sao / no-sao-non-deblock / rd=3 / no-early-skip / rskip / no-fast-intra / no-tskip-fast / no-cu-lossless / no-b-intra / no-splitrd-skip / rdpenalty=0 / psy-rd=2.00 / psy-rdoq=0.00 / no-rd-refine / no-lossless / cbqpoffs=0 / crqpoffs=0 / rc=abr / bitrate=4690000 / qcomp=0.60 / qpstep=4 / stats-write=0 / stats-read=1 / cplxblur=20.0 / qblur=0.5 / vbv-maxrate=39600000 / vbv-bufsize=39600000 / vbv-init=0.9 / ipratio=1.40 / pbratio=1.30 / aq-mode=1 / aq-strength=1.00 / cutree / zone-count=0 / no-strict-cbr / qg-size=64 / no-rc-grain / qpmax=69 / qpmin=0 / no-const-vbv / sar=1 / overscan=0 / videoformat=0 / range=0 / colorprim=1 / transfer=1 / colormatrix=1 / chromaloc=0 / display-window=0 / max-cll=0,0 / min-luma=0 / max-luma=1023 / log2-max-poc-lsb=8 / vui-timing-info / vui-hrd-info / slices=1 / no-opt-qp-pps / no-opt-ref-list-length-pps / no-multi-pass-opt-rps / scenecut-bias=0.05 / no-opt-cu-delta-qp / no-aq-motion / no-hdr / no-hdr-opt / no-dhdr10-opt / no-idr-recovery-sei / analysis-reuse-level=0 / scale-factor=0 / refine-intra=0 / refine-inter=0 / refine-mv=0 / no-limit-sao / ctu-info=0 / no-lowpass-dct / refine-mv-type=0 / copy-pic=1 / max-ausize-factor=1.0 / no-dynamic-refine / no-single-sei
    Default                                  : Ano
    Forced                                   : Ne
    Color range                              : Limited
    Color primaries                          : BT.709
    Transfer characteristics                 : BT.709
    Matrix coefficients                      : BT.709

    Audio #1
    ID                                       : 2
    Formát                                   : AAC LC
    Formát/Info                              : Advanced Audio Codec Low Complexity
    Codec ID                                 : A_AAC-2
    Duration                                 : 2 h 4 min
    Bit rate                                 : 317 kb/s
    Kanál(y)                                 : 6 kanály
    Channel layout                           : C L R Ls Rs LFE
    Sampling rate                            : 48,0 kHz
    Frame rate                               : 46,875 FPS (1024 SPF)
    Compression mode                         : Lossy
    Stream size                              : 283 MiB (6%)
    Titul                                    : CZ AC3 DD 5.1
    Jazyk                                    : Czech
    Default                                  : Ano
    Forced                                   : Ne

    Audio #2
    ID                                       : 3
    Formát                                   : AAC LC
    Formát/Info                              : Advanced Audio Codec Low Complexity
    Codec ID                                 : A_AAC-2
    Duration                                 : 2 h 4 min
    Bit rate                                 : 317 kb/s
    Kanál(y)                                 : 6 kanály
    Channel layout                           : C L R Ls Rs LFE
    Sampling rate                            : 48,0 kHz
    Frame rate                               : 46,875 FPS (1024 SPF)
    Compression mode                         : Lossy
    Stream size                              : 283 MiB (6%)
    Titul                                    : EN AC3 DD 5.1
    Jazyk                                    : English
    Default                                  : Ne
    Forced                                   : Ne

    Text
    ID                                       : 4
    Formát                                   : PGS
    Muxing mode                              : zlib
    Codec ID                                 : S_HDMV/PGS
    Codec ID/Info                            : Picture based subtitle format used on BDs/HD-DVDs
    Duration                                 : 1 h 59 min
    Bit rate                                 : 30,7 kb/s
    Count of elements                        : 2736
    Stream size                              : 26,4 MiB (1%)
    Titul                                    : CZ tit
    Jazyk                                    : Czech
    Default                                  : Ano
    Forced                                   : Ne









    ONLINE




    Upozornenie:
    Ziadny zo zobrazených súborov sa nenachádza na tomto serveri. Server slúzi len k síreniu vlastnorucne vytvorených aplikácií, videí, hudby ai. Autori stránok nenesú ziadnu zodpovednost za zverejnené odkazy, komentáre a obsah súborov. Vsetky komentáre, odkazy, súbory ktoré by svojou povahou mohli byt v rozpore zo zákonmi sem vkladáte na vlastnú zodpovednost. Autori stránok si vyhradzujú právo cenzúry odkazov, komentárov príp. súborov, ktoré by svojou povahou mohli byt v rozpore zo zákonmi a dobrými mravmi. Dodrzujte pravidlá!


    No comments...


    Back

    Na serveru se nenalézají zádne soubory. Za odkazy jsou výhradně zodpovědní uzivatelé a návstěvníci tohoto trackeru. Administrátor není zodpovědný za pridaný obsah ani za skody zpusobené uzivateli. Rozsirovat stránku nebo její obsah bez souhlasu ownera je zakázano. Nesmíte pouzívat tuto webovou stránku pro distribuovaní nebo download zádného materiálu pokud nemáte povolení od príslusného vlastníka práv. Uzivatelé jsou zodpovědní za dodrzování těchto pravidel a podmínek. Owner má právo kdykoliv změnit pravidla tohoto trackeru.

    [ Script trval: 0.021 sec. ] - [ GZIP: enabled ]
    Je zhruba 14:46

    TOPlist