Tvoj účet nieje VIP.
Preto sú tvoje funkcie a možnosti značne obmedzené.
Pre aktiváciu VIP klikni sem.

Slunecna 154. dil - Mala sluzbicka = CSFD 35% | SkTorrent.eu

Cz-SkTorrent open Tracker, na volné zdielanie súborov. Pridajte sa k nasej komunite a získajte pristup k tisícom torrentov.

  • vysoká rýchlost
  • úplne zdarma
  • prevazne Slovenska a Ceska scena
  • ste tu s nami uz 5 rokov - Dakujeme
  • Vitaj Guest (Login) Ako stahovat
    torrenty?
    Torrenty:
    v1 textová
    v2 obrázková
    v3 online filmy
    Ako sa stat
    Uploaderom
    Online
    Filmy
    Forum
    Pravidlá
    BitTorrent
    klient
    Meno: Heslo:
    Zaregistrovat
    Po zaregistrovaní mozte volne stahovat
    Zabudol som heslo

    Torrent's details
    Slunecna 154. dil - Mala sluzbicka  = CSFD 35% Názov:Slunecna 154. dil - Mala sluzbicka = CSFD 35% Hodnocení:N/A Stiahnut
    Pozriet Online
    Kategória:Seriál Velikost:2.3 GB BitTorrent klient
    Pridaný: Súbory:
    Skontrolován:2022-01-11 Peerov:50 (Seed: 50, Leech: 0)
    Zaner:Komedie,Rodinny,Romanticky Uploader:Uvidis, az ked budes
    VIP
    Kúp nám Pivo 1,10€

    Kúp nám Pivo
    Podporte nas na Facebooku !
    Pridaj do zalozky
    Pridaj do zalozky




    Rok vydání: 2021
    Jazyk: Český
    Titulky: Nejsou
    Žánr: Komedie / Romantický / Rodinný
    https://www.csfd.cz/film/804452-slunecna/prehled/



    Statek na Slunečné je místo, kde rodina Popelkových dělá ten nejlepší kozí sýr a provozuje rodinný penzion a hospodu. Po nečekané smrti otce Popelky se mezi sestrami Týnou a Sylvou rozhoří boj rodinného dědictví. Navíc, louky okolo statku jsou ideální pro fotovoltaickou elektrárnu a to je další důvod navíc, statek prodat. Zatímco hodná Týna chce statek zachovat, vypočítavá Sylva by raději shrábla peníze a vrátila se zpátky do Prahy. Do toho všeho se na scéně objeví mladý investor Janek, kterému jde na prvním místě jen o peníze, ale statek mu změní život. Nejdřív kvůli sázce o Týnu si vymění roli se svým řidičem Vildou a hraje si na chuďase, kterým se ale brzy kvůli zradě, svého bratrance a společníka ve firmě Romana, stane. Janek se tak dostane do situace, kdy musí začít od nuly a podaří se mu přesvědčit Týnu, že ve dvou se to lépe táhne. S Týnou tak bojují o statek nejen kvůli sobě a odkazu otce, ale také kvůli jeho obyvatelům a zaměstnancům. Martin Popelka totiž statek poskytoval jako útočiště a zázemí pro ztroskotance a tím jim dal novou životní šanci. U starostů se odhaluje velké rodinné tajemství a Lídiny velké plány narušuje rozchod syna Štěpána s Týnou a přistěhování nesnesitelného tchána. Statek stojí ve vesnici Slunečná a název vesnice vyplývá z toho, že nad oblastí dochází k meteorologické anomálii, kdy statisticky méně prší a více svítí slunce. Na pastvinách, které většinu roku prohřívá slunce, rostou keře, květiny a bylinky, které spásají kozy a krávy a ty pak dojí mléko s jedinečnou chutí. Na statku se vyrábí sýry, které mají delikátní chuť, a proto jsou oblíbené i za hranicí kraje. Do toho na statku stojí studna se „zázračnou“ vodou. Pomocí vody hospodyně Alžběta pomáhá ženám otěhotnět. Všichni v okolí si myslí, že to jsou jen Alžbětiny čáry, vše se změní v okamžiku, kdy se udělají rozbory. Ukáže se, že voda má opravdu složení, které může léčit poruchy plodnosti a je jasné, že se objeví chytráci, kteří by vodu chtěli zpeněžit. Do malého penzionu, který je součástí statku jezdí různí hosté. Rodiny, milenci, záletníci, teambuldingové party. Všechny tyto příběhy seriál Slunečná sleduje.


    Media Info
    General
    Unique ID                      : 245377539883523972143153031620508613079 (0xB899FEC3BC18569D8C5BBAE15F2D79D7)
    Complete name                  : D:\DVD\AVI\Slunečná (2021)\Slunečná 154. díl - Malá službička.mkv
    Format                         : Matroska
    Format version                 : Version 4 / Version 2
    File size                      : 2.26 GiB
    Duration                       : 1 h 2 min
    Overall bit rate               : 5 136 kb/s
    Encoded date                   : UTC 2022-01-11 18:33:16
    Writing application            : mkvmerge v18.0.0 ('Apricity') 64-bit
    Writing library                : libebml v1.3.5 + libmatroska v1.4.8

    Video
    ID                             : 1
    Format                         : AVC
    Format/Info                    : Advanced Video Codec
    Format profile                 : High@L4
    Format settings, CABAC         : Yes
    Format settings, RefFrames     : 4 frames
    Codec ID                       : V_MPEG4/ISO/AVC
    Duration                       : 1 h 2 min
    Bit rate                       : 5 000 kb/s
    Width                          : 1 920 pixels
    Height                         : 1 080 pixels
    Display aspect ratio           : 16:9
    Frame rate mode                : Constant
    Frame rate                     : 25.000 FPS
    Color space                    : YUV
    Chroma subsampling             : 4:2:0
    Bit depth                      : 8 bits
    Scan type                      : Progressive
    Bits/(Pixel*Frame)             : 0.096
    Stream size                    : 2.20 GiB (97%)
    Writing library                : x264 core 157 r2969 d4099dd
    Encoding settings              : cabac=1 / ref=1 / deblock=1:0:0 / analyse=0x3:0x113 / me=hex / subme=2 / psy=1 / psy_rd=1.00:0.00 / mixed_ref=0 / me_range=16 / chroma_me=1 / trellis=0 / 8x8dct=1 / cqm=0 / deadzone=21,11 / fast_pskip=1 / chroma_qp_offset=0 / threads=12 / lookahead_threads=4 / sliced_threads=0 / nr=0 / decimate=1 / interlaced=0 / bluray_compat=0 / constrained_intra=0 / bframes=3 / b_pyramid=2 / b_adapt=1 / b_bias=0 / direct=1 / weightb=1 / open_gop=0 / weightp=1 / keyint=250 / keyint_min=25 / scenecut=40 / intra_refresh=0 / rc_lookahead=10 / rc=abr / mbtree=1 / bitrate=5000 / ratetol=1.0 / qcomp=0.60 / qpmin=0 / qpmax=69 / qpstep=4 / ip_ratio=1.40 / aq=1:1.00
    Default                        : Yes
    Forced                         : No

    Audio
    ID                             : 2
    Format                         : AAC
    Format/Info                    : Advanced Audio Codec
    Format profile                 : LC
    Codec ID                       : A_AAC
    Duration                       : 1 h 2 min
    Bit rate                       : 126 kb/s
    Channel(s)                     : 2 channels
    Channel positions              : Front: L R
    Sampling rate                  : 44.1 kHz
    Frame rate                     : 43.066 FPS (1024 SPF)
    Compression mode               : Lossy
    Stream size                    : 56.8 MiB (2%)
    Default                        : Yes
    Forced                         : No


    Po nahrani torrentu na Tracker nezabudnite tento stiahnut a SEEDOVAT.



    ONLINE

    ZDE KLIKNI PRO SLEDOVÁNÍ





    ladik1919, BERUJIZEZADU, hudrbica, Devil72cz, jardda2007, zlobr13, frpetr,

    + Pridaj vlastnu verziu tohto torrentu +


    Upozornenie:
    Ziadny zo zobrazených súborov sa nenachádza na tomto serveri. Server slúzi len k síreniu vlastnorucne vytvorených aplikácií, videí, hudby ai. Autori stránok nenesú ziadnu zodpovednost za zverejnené odkazy, komentáre a obsah súborov. Vsetky komentáre, odkazy, súbory ktoré by svojou povahou mohli byt v rozpore zo zákonmi sem vkladáte na vlastnú zodpovednost. Autori stránok si vyhradzujú právo cenzúry odkazov, komentárov príp. súborov, ktoré by svojou povahou mohli byt v rozpore zo zákonmi a dobrými mravmi. Dodrzujte pravidlá!


    No comments...


    Back

    Na serveru se nenalézají zádne soubory. Za odkazy jsou výhradně zodpovědní uzivatelé a návstěvníci tohoto trackeru. Administrátor není zodpovědný za pridaný obsah ani za skody zpusobené uzivateli. Rozsirovat stránku nebo její obsah bez souhlasu ownera je zakázano. Nesmíte pouzívat tuto webovou stránku pro distribuovaní nebo download zádného materiálu pokud nemáte povolení od príslusného vlastníka práv. Uzivatelé jsou zodpovědní za dodrzování těchto pravidel a podmínek. Owner má právo kdykoliv změnit pravidla tohoto trackeru.

    [ Script trval: 0.050 sec. ] - [ GZIP: enabled ]
    Je zhruba 18:15
    memcache

    TOPlist