Tvoj účet nieje VIP.
Preto sú tvoje funkcie a možnosti značne obmedzené.
Pre aktiváciu VIP klikni sem.

Smrt talentovaneho sevce (1982)(CZ) = CSFD 58% | SkTorrent.eu

Cz-SkTorrent open Tracker, na volné zdielanie súborov. Pridajte sa k nasej komunite a získajte pristup k tisícom torrentov.

  • vysoká rýchlost
  • úplne zdarma
  • prevazne Slovenska a Ceska scena
  • ste tu s nami uz 5 rokov - Dakujeme
  • Vitaj Guest (Login) Ako stahovat
    torrenty?
    Torrenty:
    v1 textová
    v2 obrázková
    v3 online filmy
    Ako sa stat
    Uploaderom
    Online
    Filmy
    Forum
    Pravidlá
    BitTorrent
    klient
    Meno: Heslo:
    Zaregistrovat
    Po zaregistrovaní mozte volne stahovat
    Zabudol som heslo

    Torrent's details
    Smrt talentovaneho sevce (1982)(CZ) = CSFD 58% Názov:Smrt talentovaneho sevce (1982)(CZ) = CSFD 58% Hodnocení:N/A Stiahnut
    Pozriet Online
    Kategória:Filmy CZ/SK dabing Velikost:700.4 MB BitTorrent klient
    Pridaný: Súbory:
    Skontrolován:2014-02-15 Peerov:0 (Seed: 0, Leech: 0)
    Zaner:Krimi Uploader:Uvidis, az ked budes
    VIP
    Kúp nám Pivo 1,10€

    Kúp nám Pivo
    Podporte nas na Facebooku !
    Pridaj do zalozky
    Pridaj do zalozky




    Jazyk: Cesky
    Titulky: Ne.
    Rok vydani: 1982
    Delka: 81 minut
    Zanr: Krimi
    Odkaz: http://www.csfd.cz/film/8128-smrt-talentovaneho-sevce/

    Obrazek

    MediaInfo:
    General
    Complete name                            : Z:\1 Cz Barevne filmy-256 GB\Smrt talentovaného ševce (1982) DVD-detektivka.avi
    Format                                   : AVI
    Format/Info                              : Audio Video Interleave
    File size                                : 700 MiB
    Duration                                 : 1h 21mn
    Overall bit rate                         : 1 203 Kbps
    Writing application                      : VirtualDubMod 1.5.4.1 (build 2178/release)
    Writing library                          : VirtualDubMod build 2178/release

    Video
    ID                                       : 0
    Format                                   : MPEG-4 Visual
    Format settings, BVOP                    : 1
    Format settings, QPel                    : No
    Format settings, GMC                     : No warppoints
    Format settings, Matrix                  : Default (H.263)
    Muxing mode                              : Packed bitstream
    Codec ID                                 : DX50
    Codec ID/Hint                            : DivX 5
    Duration                                 : 1h 21mn
    Bit rate                                 : 1 068 Kbps
    Width                                    : 640 pixels
    Height                                   : 480 pixels
    Display aspect ratio                     : 4:3
    Frame rate                               : 25.000 fps
    Color space                              : YUV
    Chroma subsampling                       : 4:2:0
    Bit depth                                : 8 bits
    Scan type                                : Progressive
    Compression mode                         : Lossy
    Bits/(Pixel*Frame)                       : 0.139
    Stream size                              : 622 MiB (89%)
    Writing library                          : DivX 6.6.1.4

    Audio
    ID                                       : 1
    Format                                   : MPEG Audio
    Format version                           : Version 1
    Format profile                           : Layer 3
    Mode                                     : Joint stereo
    Mode extension                           : MS Stereo
    Codec ID                                 : 55
    Codec ID/Hint                            : MP3
    Duration                                 : 1h 21mn
    Bit rate mode                            : Constant
    Bit rate                                 : 128 Kbps
    Channel(s)                               : 2 channels
    Sampling rate                            : 48.0 KHz
    Compression mode                         : Lossy
    Stream size                              : 74.5 MiB (11%)
    Alignment                                : Aligned on interleaves
    Interleave, duration                     : 80 ms (2.00 video frames)
    Interleave, preload duration             : 504 ms
    Writing library                          : LAME3.97
    Encoding settings                        : -m j -V 4 -q 2 -lowpass 17 -b 128
    Language                                 : Czech


    Popis:
    Případ zavražděného ševce a malíře Rambouska jako další případ kapitána Exnera, jednoho z nejznámějších českých detektivů.
    Kapitán Exner řeší další detektivní záhadu - tentokrát v době, kdy je na dovolené. Nejelegantnější z českých románových kriminalistů si vybral jako místo svého zaslouženého odpočinku poklidné městečko jménem Opolná. Jenže právě v době jeho příjezdu zde došlo k vraždě místního obuvníka Rambouska, proslaveného (a také majetného) naivního malíře.









    + Pridaj vlastnu verziu tohto torrentu +


    Upozornenie:
    Ziadny zo zobrazených súborov sa nenachádza na tomto serveri. Server slúzi len k síreniu vlastnorucne vytvorených aplikácií, videí, hudby ai. Autori stránok nenesú ziadnu zodpovednost za zverejnené odkazy, komentáre a obsah súborov. Vsetky komentáre, odkazy, súbory ktoré by svojou povahou mohli byt v rozpore zo zákonmi sem vkladáte na vlastnú zodpovednost. Autori stránok si vyhradzujú právo cenzúry odkazov, komentárov príp. súborov, ktoré by svojou povahou mohli byt v rozpore zo zákonmi a dobrými mravmi. Dodrzujte pravidlá!


    No comments...


    Back

    Na serveru se nenalézají zádne soubory. Za odkazy jsou výhradně zodpovědní uzivatelé a návstěvníci tohoto trackeru. Administrátor není zodpovědný za pridaný obsah ani za skody zpusobené uzivateli. Rozsirovat stránku nebo její obsah bez souhlasu ownera je zakázano. Nesmíte pouzívat tuto webovou stránku pro distribuovaní nebo download zádného materiálu pokud nemáte povolení od príslusného vlastníka práv. Uzivatelé jsou zodpovědní za dodrzování těchto pravidel a podmínek. Owner má právo kdykoliv změnit pravidla tohoto trackeru.

    [ Script trval: 0.029 sec. ] - [ GZIP: enabled ]
    BtiTracker (1.4.8) by Btiteam
    Je zhruba 14:02

    TOPlist