Tvoj účet nieje VIP.
Preto sú tvoje funkcie a možnosti značne obmedzené.
Pre aktiváciu VIP klikni sem.

Smrtonosna past: Opet v akci / A Good Day to Die Hard (2013)(CZ) = CSFD 51% | SkTorrent.eu

Cz-SkTorrent open Tracker, na volné zdielanie súborov. Pridajte sa k nasej komunite a získajte pristup k tisícom torrentov.

  • vysoká rýchlost
  • úplne zdarma
  • prevazne Slovenska a Ceska scena
  • ste tu s nami uz 5 rokov - Dakujeme
  • Vitaj Guest (Login) Ako stahovat
    torrenty?
    Torrenty:
    v1 textová
    v2 obrázková
    v3 online filmy
    Ako sa stat
    Uploaderom
    Online
    Filmy
    Forum
    Pravidlá
    BitTorrent
    klient
    Meno: Heslo:
    Zaregistrovat
    Po zaregistrovaní mozte volne stahovat
    Zabudol som heslo

    Torrent's details
    Smrtonosna past: Opet v akci / A Good Day to Die Hard (2013)(CZ) = CSFD 51% Názov:Smrtonosna past: Opet v akci / A Good Day to Die Hard (2013)(CZ) = CSFD 51% Hodnocení: Stiahnut
    Pozriet Online
    Kategória:Filmy CZ/SK dabing Velikost:705.9 MB BitTorrent klient
    Pridaný: Súbory:
    Skontrolován:2014-01-29 Peerov:1 (Seed: 0, Leech: 1)
    Zaner:Akcni,Krimi,Thriller Uploader:Uvidis, az ked budes
    VIP
    Kúp nám Pivo 1,10€

    Kúp nám Pivo
    Podporte nas na Facebooku !
    Pridaj do zalozky
    Pridaj do zalozky




    Jazyk: cz
    Titulky: nie
    Kvalita zvuku: Media Info
    Kvalita videa: Media Info
    Odkaz na CSFD: http://www.csfd.cz/film/275001-smrtonosna-past-opet-v-akci/
    Rok vydání: 2013
    Délka: 1h 41mn
    Obal:


    (Bruce Willis - ) se ve skvělé formě vrací se svou nejslavnější filmovou rolí - jako nezničitelný policejní detektiv John McClane. Tentokráte přijíždí do Moskvy, aby tady našel svého syna Jacka (Jai Courtney), který se mu poněkud odcizil. Johna ale čeká překvapení, zjistí, že i když jejich vztah otec - syn má k ideálu hodně daleko, jablko nepadlo daleko od stromu. Jack totiž v Moskvě působí jako tajný agent, chránící informátora z vládních řad, Komarovova (Sebastian Koch). Otec a syn McClaneovi jsou nuceni překonat osobní neshody a nasadit vlastní krky, aby dostali Komarovova do bezpečí a odvrátili hrozbu katastrofálního zločinu v bezútěšném místě naší planety – v Černobylu. Do hry tak vstupuje obchod s plutoniem, ruští oligarchové, brutální moskevské podsvětí a také různé představy Johna a Jacka McClaneových jak za těchto okolností prosadit zákon. A navíc se Jack McClane jako tajný agent v Moskvě skvěle vyzná i domluví, kdežto John je naprosto ztracený. A to mu na dobré náladě rozhodně nepřidává



    Format                                   : AVI
    Format/Info: Audio Video Interleave
    File size: 706 MiB
    Duration: 1h 41mn
    Overall bit rate: 975 Kbps
    Writing application: VirtualDubMod 1.5.10.1 (build 2366/release)
    Writing library: VirtualDubMod build 2366/release

    Video
    ID: 0
    Format: MPEG-4 Visual
    Format profile: Advanced Simple@L5
    Format settings, BVOP: 1
    Format settings, QPel: No
    Format settings, GMC: No warppoints
    Format settings, Matrix: Custom
    Codec ID: XVID
    Codec ID/Hint: XviD
    Duration: 1h 41mn
    Bit rate: 838 Kbps
    Width: 640 pixels
    Height: 352 pixels
    Display aspect ratio: 16:9
    Frame rate: 23.976 fps
    Color space: YUV
    Chroma subsampling: 4:2:0
    Bit depth: 8 bits
    Scan type: Progressive
    Compression mode: Lossy
    Bits/(Pixel*Frame): 0.155
    Stream size: 606 MiB (86%)
    Writing library: XviD 1.2.1 (UTC 2008-12-04)

    Audio
    ID: 1
    Format: MPEG Audio
    Format version: Version 1
    Format profile: Layer 3
    Mode: Joint stereo
    Mode extension: MS Stereo
    Codec ID: 55
    Codec ID/Hint: MP3
    Duration: 1h 41mn
    Bit rate mode: Constant
    Bit rate: 128 Kbps
    Channel(s): 2 channels
    Sampling rate: 48.0 KHz
    Compression mode: Lossy
    Stream size: 92.6 MiB (13%)
    Alignment: Aligned on interleaves
    Interleave, duration: 42 ms (1.00 video frame)
    Interleave, preload duration: 504 ms
    Writing library: LAME3.98.2







    LUBOSKO12, buby,

    + Pridaj vlastnu verziu tohto torrentu +


    Upozornenie:
    Ziadny zo zobrazených súborov sa nenachádza na tomto serveri. Server slúzi len k síreniu vlastnorucne vytvorených aplikácií, videí, hudby ai. Autori stránok nenesú ziadnu zodpovednost za zverejnené odkazy, komentáre a obsah súborov. Vsetky komentáre, odkazy, súbory ktoré by svojou povahou mohli byt v rozpore zo zákonmi sem vkladáte na vlastnú zodpovednost. Autori stránok si vyhradzujú právo cenzúry odkazov, komentárov príp. súborov, ktoré by svojou povahou mohli byt v rozpore zo zákonmi a dobrými mravmi. Dodrzujte pravidlá!


    No comments...


    Back

    Na serveru se nenalézají zádne soubory. Za odkazy jsou výhradně zodpovědní uzivatelé a návstěvníci tohoto trackeru. Administrátor není zodpovědný za pridaný obsah ani za skody zpusobené uzivateli. Rozsirovat stránku nebo její obsah bez souhlasu ownera je zakázano. Nesmíte pouzívat tuto webovou stránku pro distribuovaní nebo download zádného materiálu pokud nemáte povolení od príslusného vlastníka práv. Uzivatelé jsou zodpovědní za dodrzování těchto pravidel a podmínek. Owner má právo kdykoliv změnit pravidla tohoto trackeru.

    [ Script trval: 0.024 sec. ] - [ GZIP: enabled ]
    Je zhruba 12:05
    sql

    TOPlist