Tvoj účet nieje VIP.
Preto sú tvoje funkcie a možnosti značne obmedzené.
Pre aktiváciu VIP klikni sem.

Sophie Scholl - The Final Days / Sophie Scholl - Posledni dny (2005)(FHD)(1080p)(Hevc)(Webdl)(DE-CZ) = CSFD 80% | SkTorrent.eu

Cz-SkTorrent open Tracker, na volné zdieľanie súborov. Pridajte sa k našej komunite a získajte prístup k tisícom torrentov.

  • vysoká rýchlosť
  • úplne zdarma
  • prevažne Slovenská a Česká scéna
  • ste tu s nami už 10 rokov - Ďakujeme
  • Vitaj Guest (Login) Ako stahovat
    torrenty?
    Torrenty:
    v1 textová
    v2 obrázková
    Ako sa stat
    Uploaderom
    Online
    Filmy
    Forum
    Pravidlá
    SkTSocial
    BitTorrent
    klient
    Meno: Heslo:
    Zaregistrovat
    Po zaregistrovaní mozte volne stahovat
    Zabudol som heslo

    Sophie Scholl - The Final Days / Sophie Scholl - Posledni dny  (2005)(FHD)(1080p)(Hevc)(Webdl)(DE-CZ) = CSFD 80% Názov:Sophie Scholl - The Final Days / Sophie Scholl - Posledni dny (2005)(FHD)(1080p)(Hevc)(Webdl)(DE-CZ) = CSFD 80% Hodnocení: Stiahnut
    Pozriet Online
    Kategória:Filmy CZ/SK dabing - Velikost:3.7 GB BitTorrent klient
    Pridaný: Súbory:
    Skontrolován:2023-03-02 Peerov:3 (Seed: 3, Leech: 0)
    Zaner:Drama,Valecny,Zivotopisny Uploader:Uvidis, az ked budes
    VIP
    Kúp nám Pivo 1,10€

    Kúp nám Pivo

    Pridaj do zalozky
    Pridaj do zalozky




    [center]







    Movie Name: Sophie Scholl - The Final Days (2005)
    IMDb Rating: 7.6/10

    Quality: 1080p (Webrip)
    Language: English (AAC 2.0 + AC3 5.1) Czech (AAC 2.0 + AC3 5.1)
    Subtitles: -
    Director: Marc Rothemund
    Writers: Fred Breinersdorfer
    Genres: Crime | Drama | Biography |


    A dramatization of the final days of Sophie Scholl, one of the most famous members of the German World War II anti-Nazi resistance movement, The White Rose.




    [/center]
    Format                                   : Matroska
    Format version                           : Version 4
    File size                                : 3.67 GiB
    Duration                                 : 1 h 55 min
    Overall bit rate                         : 4 550 kb/s
    Movie name                               : Sophie Scholl - The Final Days (2005)(FHD)(1080p)(Hevc)(Webdl)(DE-CZ) PHDTeam
    Encoded date                             : UTC 2023-02-14 16:59:34
    Writing application                      : mkvmerge v74.0.0 ('You Oughta Know') 64-bit
    Writing library                          : libebml v1.4.4 + libmatroska v1.7.1

    Video
    ID                                       : 1
    Format                                   : HEVC
    Format/Info                              : High Efficiency Video Coding
    Format profile                           : Main@L4@Main
    Codec ID                                 : V_MPEGH/ISO/HEVC
    Duration                                 : 1 h 55 min
    Bit rate                                 : 3 392 kb/s
    Width                                    : 1 920 pixels
    Height                                   : 1 080 pixels
    Display aspect ratio                     : 16:9
    Frame rate mode                          : Constant
    Frame rate                               : 30.000 FPS
    Standard                                 : Component
    Color space                              : YUV
    Chroma subsampling                       : 4:2:0
    Bit depth                                : 8 bits
    Bits/(Pixel*Frame)                       : 0.055
    Stream size                              : 2.74 GiB (75%)
    Title                                    : Sophie Scholl - The Final Days (2005)(FHD)(1080p)(Hevc)(Webdl)(DE-CZ) PHDTeam
    Default                                  : Yes
    Forced                                   : No
    Color range                              : Limited

    Audio #1
    ID                                       : 2
    Format                                   : AAC LC
    Format/Info                              : Advanced Audio Codec Low Complexity
    Codec ID                                 : A_AAC-2
    Duration                                 : 1 h 55 min
    Bit rate                                 : 128 kb/s
    Channel(s)                               : 2 channels
    Channel layout                           : L R
    Sampling rate                            : 44.1 kHz
    Frame rate                               : 43.066 FPS (1024 SPF)
    Compression mode                         : Lossy
    Delay relative to video                  : -46 ms
    Stream size                              : 106 MiB (3%)
    Language                                 : Czech
    Default                                  : Yes
    Forced                                   : No

    Audio #2
    ID                                       : 3
    Format                                   : AAC LC
    Format/Info                              : Advanced Audio Codec Low Complexity
    Codec ID                                 : A_AAC-2
    Duration                                 : 1 h 55 min
    Bit rate                                 : 128 kb/s
    Channel(s)                               : 2 channels
    Channel layout                           : L R
    Sampling rate                            : 44.1 kHz
    Frame rate                               : 43.066 FPS (1024 SPF)
    Compression mode                         : Lossy
    Delay relative to video                  : -46 ms
    Stream size                              : 106 MiB (3%)
    Language                                 : German
    Default                                  : No
    Forced                                   : No

    Audio #3
    ID                                       : 4
    ID in the original source medium         : 189 (0xBD)128 (0x80)
    Format                                   : AC-3
    Format/Info                              : Audio Coding 3
    Commercial name                          : Dolby Digital
    Codec ID                                 : A_AC3
    Duration                                 : 1 h 55 min
    Bit rate mode                            : Constant
    Bit rate                                 : 448 kb/s
    Channel(s)                               : 6 channels
    Channel layout                           : L R C LFE Ls Rs
    Sampling rate                            : 48.0 kHz
    Frame rate                               : 31.250 FPS (1536 SPF)
    Compression mode                         : Lossy
    Delay relative to video                  : -46 ms
    Stream size                              : 370 MiB (10%)
    Title                                    : Surround 5.1
    Language                                 : Czech
    Service kind                             : Complete Main
    Default                                  : Yes
    Forced                                   : No
    Original source medium                   : DVD-Video

    Audio #4
    ID                                       : 5
    ID in the original source medium         : 189 (0xBD)129 (0x81)
    Format                                   : AC-3
    Format/Info                              : Audio Coding 3
    Commercial name                          : Dolby Digital
    Codec ID                                 : A_AC3
    Duration                                 : 1 h 55 min
    Bit rate mode                            : Constant
    Bit rate                                 : 448 kb/s
    Channel(s)                               : 6 channels
    Channel layout                           : L R C LFE Ls Rs
    Sampling rate                            : 48.0 kHz
    Frame rate                               : 31.250 FPS (1536 SPF)
    Compression mode                         : Lossy
    Delay relative to video                  : -46 ms
    Stream size                              : 370 MiB (10%)
    Title                                    : Surround 5.1
    Language                                 : German
    Service kind                             : Complete Main
    Default                                  : Yes
    Forced                                   : No
    Original source medium                   : DVD-Video

    Text #1
    ID                                       : 6
    ID in the original source medium         : 189 (0xBD)32 (0x20)
    Format                                   : VobSub
    Muxing mode                              : zlib
    Codec ID                                 : S_VOBSUB
    Codec ID/Info                            : Picture based subtitle format used on DVDs
    Duration                                 : 1 s 957 ms
    Bit rate                                 : 7 538 b/s
    Frame rate                               : 0.511 FPS
    Count of elements                        : 1
    Stream size                              : 1.80 KiB (0%)
    Language                                 : Czech
    Default                                  : No
    Forced                                   : No
    Original source medium                   : DVD-Video

    Text #2
    ID                                       : 7
    ID in the original source medium         : 189 (0xBD)34 (0x22)
    Format                                   : VobSub
    Muxing mode                              : zlib
    Codec ID                                 : S_VOBSUB
    Codec ID/Info                            : Picture based subtitle format used on DVDs
    Duration                                 : 1 h 49 min
    Bit rate                                 : 4 010 b/s
    Frame rate                               : 0.143 FPS
    Count of elements                        : 939
    Stream size                              : 3.15 MiB (0%)
    Language                                 : Czech
    Default                                  : No
    Forced                                   : No
    Original source medium                   : DVD-Video




    ONLINE











    bilk, pohee, karellx, Joseph82, Divoch1312, zdenek0120,

    + Pridaj vlastnu verziu tohto torrentu +


    Upozornenie:
    Ziadny zo zobrazených súborov sa nenachádza na tomto serveri. Server slúzi len k síreniu vlastnorucne vytvorených aplikácií, videí, hudby ai. Autori stránok nenesú ziadnu zodpovednost za zverejnené odkazy, komentáre a obsah súborov. Vsetky komentáre, odkazy, súbory ktoré by svojou povahou mohli byt v rozpore zo zákonmi sem vkladáte na vlastnú zodpovednost. Autori stránok si vyhradzujú právo cenzúry odkazov, komentárov príp. súborov, ktoré by svojou povahou mohli byt v rozpore zo zákonmi a dobrými mravmi. Dodrzujte pravidlá!


    No comments...


    Back

    Na serveru se nenalézají zádne soubory. Za odkazy jsou výhradně zodpovědní uzivatelé a návstěvníci tohoto trackeru. Administrátor není zodpovědný za pridaný obsah ani za skody zpusobené uzivateli. Nesmíte pouzívat tuto webovou stránku pro distribuovaní nebo download zádného materiálu pokud nemáte povolení od príslusného vlastníka práv. Uzivatelé jsou zodpovědní za dodrzování těchto pravidel a podmínek. Owner má právo kdykoliv změnit pravidla tohoto trackeru.

    [ Script trval: 0.122 sec. ] - [ GZIP: enabled ]
    Je zhruba 22:43
    sql

    TOPlist