Tvoj účet nieje VIP.
Preto sú tvoje funkcie a možnosti značne obmedzené.
Pre aktiváciu VIP klikni sem.

Spiderhead / Escape from Spiderhead (CZ/EN)(2022)(1080p)(Web-DL) = CSFD 69% | SkTorrent.eu

Cz-SkTorrent open Tracker, na volné zdielanie súborov. Pridajte sa k nasej komunite a získajte pristup k tisícom torrentov.

  • vysoká rýchlost
  • úplne zdarma
  • prevazne Slovenska a Ceska scena
  • ste tu s nami uz 5 rokov - Dakujeme
  • Vitaj Guest (Login) Ako stahovat
    torrenty?
    Torrenty:
    v1 textová
    v2 obrázková
    v3 online filmy
    Ako sa stat
    Uploaderom
    Online
    Filmy
    Forum
    Pravidlá
    BitTorrent
    klient
    Meno: Heslo:
    Zaregistrovat
    Po zaregistrovaní mozte volne stahovat
    Zabudol som heslo

    Torrent's details
    Spiderhead / Escape from Spiderhead (CZ/EN)(2022)(1080p)(Web-DL) = CSFD 69% Názov:Spiderhead / Escape from Spiderhead (CZ/EN)(2022)(1080p)(Web-DL) = CSFD 69% Hodnocení: Stiahnut
    Pozriet Online
    Kategória:Filmy CZ/SK dabing Velikost:2.4 GB BitTorrent klient
    Pridaný: Súbory:
    Skontrolován:2022-06-17 Peerov:288 (Seed: 288, Leech: 0)
    Zaner:Akcni,Krimi,Sci-Fi,Thriller Uploader:Uvidis, az ked budes
    VIP
    Kúp nám Pivo 1,10€

    Kúp nám Pivo
    Podporte nas na Facebooku !
    Pridaj do zalozky
    Pridaj do zalozky











    Sci-Fi / Akční / Thriller / Krimi / Drama
    USA, 2022, 107 min


    Video: 1080p MKV
    Audio : CZ/EN Dabing - AC-3 5.1- 768 kb/s
    Titulky : CZ/EN + CZ forced

    Režie: Joseph Kosinski
    Předloha: George Saunders (povídka)
    Scénář: Rhett Reese, Paul Wernick
    Kamera: Claudio Miranda
    Hudba: Joseph Trapanese
    Hrají: Miles Teller, Chris Hemsworth, Jurnee Smollett, Charles Parnell, Tess Haubrich, Nathan Jones, BeBe Bettencourt, Angie Milliken, Sam Delich,
    Produkce: Chris Hemsworth, Eric Newman, Jeremy Steckler
    Střih: Stephen Mirrione
    Scénografie: Jeremy Hindle

    Náhled








    Dva trestance dožene jejich minulost, když jim vizionářský génius změní pocity pomocí drog. (Netflix)



    Formát                                   : Matroska
    Format version                           : Version 4
    Velikost souboru                         : 2,45 GiB
    Duration                                 : 1 h 47 min
    Overall bit rate mode                    : Variable
    Celkový BitRate                          : 3 265 kb/s
    Název filmu                              : Spiderhead
    Description                              : Vězeň zavřený v supermoderní věznici začíná pátrat po tom, k čemu má vlastně sloužit droga na ovládání emocí, kterou testuje pro geniálního farmaceuta.
    Použitý software                         : Lavf58.45.100
    Enkódoval                                : Lavf58.45.100
    ErrorDetectionType                       : Per level 1
    DATE                                     : 2022

    Video
    ID                                       : 1
    Formát                                   : AVC
    Formát/Info                              : Advanced Video Codec
    Format profile                           : Main@L4
    Format settings                          : CABAC / 3 Ref Frames
    Format settings, CABAC                   : Ano
    Format settings, Reference frames        : 3 frames
    Codec ID                                 : V_MPEG4/ISO/AVC
    Duration                                 : 1 h 47 min
    Bit rate mode                            : Variable
    Bit rate                                 : 1 664 kb/s
    Nominal bit rate                         : 2 104 kb/s
    Maximum bit rate                         : 3 915 kb/s
    Šířka                                    : 1 920pixely
    Výška                                    : 1 080pixely
    Poměr stran                              : 16:9
    Frame rate mode                          : Constant
    Frame rate                               : 24,000 FPS
    Color space                              : YUV
    Chroma subsampling                       : 4:2:0
    Bit depth                                : 8 bits
    Scan type                                : Progressive
    Bits/(Pixel*Frame)                       : 0.033
    Stream size                              : 1,25 GiB (51%)
    Enkódoval                                : x264 core 148 r2727 7d026e8
    Nastavení enkoderu                       : cabac=1 / ref=3 / deblock=1:0:0 / analyse=0x1:0x111 / me=umh / subme=10 / psy=1 / psy_rd=1.00:0.00 / mixed_ref=1 / me_range=24 / chroma_me=1 / trellis=2 / 8x8dct=0 / cqm=0 / deadzone=21,11 / fast_pskip=1 / chroma_qp_offset=-2 / threads=8 / lookahead_threads=1 / sliced_threads=0 / nr=0 / decimate=1 / interlaced=0 / bluray_compat=0 / stitchable=1 / constrained_intra=0 / bframes=2 / b_pyramid=0 / b_adapt=2 / b_bias=0 / direct=3 / weightb=1 / open_gop=0 / weightp=2 / keyint=250 / keyint_min=24 / scenecut=0 / intra_refresh=0 / rc_lookahead=48 / rc=2pass / mbtree=1 / bitrate=2104 / ratetol=1.0 / qcomp=0.50 / qpmin=6 / qpmax=51 / qpstep=4 / cplxblur=20.0 / qblur=0.5 / vbv_maxrate=3915 / vbv_bufsize=5220 / nal_hrd=vbr / filler=0 / ip_ratio=1.40 / aq=1:1.00
    Default                                  : Ano
    Forced                                   : Ne

    Audio #1
    ID                                       : 2
    Formát                                   : E-AC-3 JOC
    Formát/Info                              : Enhanced AC-3 with Joint Object Coding
    Commercial name                          : Dolby Digital Plus with Dolby Atmos
    Codec ID                                 : A_EAC3
    Duration                                 : 1 h 47 min
    Bit rate mode                            : Constant
    Bit rate                                 : 768 kb/s
    Kanál(y)                                 : 6 kanály
    Channel layout                           : L R C LFE Ls Rs
    Sampling rate                            : 48,0 kHz
    Frame rate                               : 31,250 FPS (1536 SPF)
    Bit depth                                : 32 bits
    Compression mode                         : Lossy
    Stream size                              : 589 MiB (24%)
    Titul                                    : čeština
    Jazyk                                    : Czech
    Service kind                             : Complete Main
    Default                                  : Ano
    Forced                                   : Ne
    Complexity index                         : 16
    Number of dynamic objects                : 15
    Bed channel count                        : 1 kanál
    Bed channel configuration                : LFE

    Audio #2
    ID                                       : 3
    Formát                                   : E-AC-3 JOC
    Formát/Info                              : Enhanced AC-3 with Joint Object Coding
    Commercial name                          : Dolby Digital Plus with Dolby Atmos
    Codec ID                                 : A_EAC3
    Duration                                 : 1 h 47 min
    Bit rate mode                            : Constant
    Bit rate                                 : 768 kb/s
    Kanál(y)                                 : 6 kanály
    Channel layout                           : L R C LFE Ls Rs
    Sampling rate                            : 48,0 kHz
    Frame rate                               : 31,250 FPS (1536 SPF)
    Bit depth                                : 32 bits
    Compression mode                         : Lossy
    Stream size                              : 589 MiB (24%)
    Titul                                    : angličtina [Originál]
    Jazyk                                    : English
    Service kind                             : Complete Main
    Default                                  : Ne
    Forced                                   : Ne
    Complexity index                         : 16
    Number of dynamic objects                : 15
    Bed channel count                        : 1 kanál
    Bed channel configuration                : LFE

    Text #1
    ID                                       : 4
    Formát                                   : UTF-8
    Codec ID                                 : S_TEXT/UTF8
    Codec ID/Info                            : UTF-8 Plain Text
    Duration                                 : 1 h 45 min
    Titul                                    : čeština
    Enkódoval                                : Lavc58.91.100 srt
    Jazyk                                    : Czech
    Default                                  : Ano
    Forced                                   : Ne

    Text #2
    ID                                       : 5
    Formát                                   : UTF-8
    Codec ID                                 : S_TEXT/UTF8
    Codec ID/Info                            : UTF-8 Plain Text
    Duration                                 : 1 h 45 min
    Titul                                    : Czech [ForcedNarrative]
    Enkódoval                                : Lavc58.91.100 srt
    Jazyk                                    : Czech
    Default                                  : Ne
    Forced                                   : Ne

    Text #3
    ID                                       : 6
    Formát                                   : UTF-8
    Codec ID                                 : S_TEXT/UTF8
    Codec ID/Info                            : UTF-8 Plain Text
    Duration                                 : 1 h 42 min
    Titul                                    : angličtina [CC]
    Enkódoval                                : Lavc58.91.100 srt
    Jazyk                                    : English
    Default                                  : Ne
    Forced                                   : Ne








    ONLINE











    nentudom, kori14, doboska, Lubtat, kelot, Ragnar66, SISKAMI, Kamiloprody, cidy, mimu, Loffi, Merlin88, AcePeter61, terka25, Miira, raruu, Jooozef, jirkacbx, hudrbica, joshi59, Rombrt, Jablonka, mirek200, ScullyXDana, MiroslavaBalhová, sa58, pitrshav, JosefZeman, honza2424, alesek2012,

    + Pridaj vlastnu verziu tohto torrentu +


    Upozornenie:
    Ziadny zo zobrazených súborov sa nenachádza na tomto serveri. Server slúzi len k síreniu vlastnorucne vytvorených aplikácií, videí, hudby ai. Autori stránok nenesú ziadnu zodpovednost za zverejnené odkazy, komentáre a obsah súborov. Vsetky komentáre, odkazy, súbory ktoré by svojou povahou mohli byt v rozpore zo zákonmi sem vkladáte na vlastnú zodpovednost. Autori stránok si vyhradzujú právo cenzúry odkazov, komentárov príp. súborov, ktoré by svojou povahou mohli byt v rozpore zo zákonmi a dobrými mravmi. Dodrzujte pravidlá!





    0
    ernest-bodor-bobin
    Ratio 6.45

    Member+

    27/06/2022 16.20.25

    0
    Tomik9583
    Ratio 0.26

    Clen

    19/06/2022 07.55.01
    největší blbost co jsem kdy viděl.

    0
    gustlhustl
    Ratio 0.19

    Clen

    18/06/2022 15.02.52
    já jsem nemohlv ani rozjet Lanskyho s R.Dreyfussem

    1
    eyrim22
    Ratio 1.32

    Member+

    17/06/2022 18.33.51
    Seká a to rádne!


    --------------
    >> 17/06/2022 22.52.56
    UPLOADER: zajímavý na ntb s integr grafikou to jede bez problémů na tv taky a na PC s rtx 2080 ani nemluvím 😀


    --------------
    >> 17/06/2022 23.34.15
    eyrim22: Nevím čím to je prehrával sem na tv fungl nová ne lacná a prehraje všecko,asi to bude ojedinelý problém už sem stáhel inú verziu tá my ide.Dík za reakciu.


    --------------
    >> 23/06/2022 22.18.10
    tiestik: S tymto formatom mam aj ja problem na samsungu


    --------------
    >> 23/06/2022 22.23.50
    UPLOADER: Zvláštní Samsung 2021 kupován před Vánoci a jede mi na něm vše co sem nahodil v MKV i HEVC , bohužel už nevím co k tomu dodat ... mrzí mně to


    Back

    Na serveru se nenalézají zádne soubory. Za odkazy jsou výhradně zodpovědní uzivatelé a návstěvníci tohoto trackeru. Administrátor není zodpovědný za pridaný obsah ani za skody zpusobené uzivateli. Rozsirovat stránku nebo její obsah bez souhlasu ownera je zakázano. Nesmíte pouzívat tuto webovou stránku pro distribuovaní nebo download zádného materiálu pokud nemáte povolení od príslusného vlastníka práv. Uzivatelé jsou zodpovědní za dodrzování těchto pravidel a podmínek. Owner má právo kdykoliv změnit pravidla tohoto trackeru.

    [ Script trval: 0.032 sec. ] - [ GZIP: enabled ]
    Je zhruba 01:37
    memcache

    TOPlist