Tvoj účet nieje VIP.
Preto sú tvoje funkcie a možnosti značne obmedzené.
Pre aktiváciu VIP klikni sem.

Spiderman / Spider-Man S01-05 (CZ) = CSFD 79% | SkTorrent.eu

Cz-SkTorrent open Tracker, na volné zdieľanie súborov. Pridajte sa k našej komunite a získajte prístup k tisícom torrentov.

  • vysoká rýchlosť
  • úplne zdarma
  • prevažne Slovenská a Česká scéna
  • ste tu s nami už 10 rokov - Ďakujeme
  • Vitaj Guest (Login) Ako stahovat
    torrenty?
    Torrenty:
    v1 textová
    v2 obrázková
    Ako sa stat
    Uploaderom
    Online
    Filmy
    Forum
    Pravidlá
    SkTSocial
    BitTorrent
    klient
    Meno: Heslo:
    Zaregistrovat
    Po zaregistrovaní mozte volne stahovat
    Zabudol som heslo

    Spiderman / Spider-Man S01-05 (CZ) = CSFD 79% Názov:Spiderman / Spider-Man S01-05 (CZ) = CSFD 79% Hodnocení:N/A Stiahnut
    Pozriet Online
    Kategória:Seriál - Velikost:25.7 GB BitTorrent klient
    Pridaný: Súbory:
    Skontrolován:2024-06-28 Peerov:13 (Seed: 12, Leech: 1)
    Zaner:Akcni,Animovany,Krimi,Rodinny Uploader:Uvidis, az ked budes
    VIP
    Kúp nám Pivo 1,10€

    Kúp nám Pivo

    Pridaj do zalozky
    Pridaj do zalozky




     Seriál sleduje Petera Parkera , vysokoškoláka na Empire State University, který se snaží vyrovnat své povinnosti jako hrdina v kostýmech Spider-Man s problémy svého osobního života. Kromě boje se zločinem musí Peter proplouvat svou romantickou náklonností k milostným zájmům Felicii Hardyové a Mary Jane Watsonové ; udržovat jeho přátelství s Harrym Osbornem ; zaměřit se na jeho akademický výkon jako studenta Dr. Curta Connorse ; a pomáhat podporovat jeho tetu May po smrti jeho strýce Bena tím, že pracuje jako fotograf na volné noze pro Daily Bugle . Bugle je vlastněn křiklounským vydavatelem J. Jonah Jamesonem , který často používá Peterovy obrázky svého alter-ega k diskreditaci a pomlouvačné kampani proti Spider-Manovi. Mezi Peterovy vrstevníky na ESU patří fotbalová hvězda Flash Thompson , populární baristka Liz Allan , vědecký génius Debra Whitman a výzkumný rival Michael Morbius .Jako Spider-Man čelí Peter různým superpadouchům, kteří ohrožují New York City , včetně zločineckých strůjců, jako jsou Kingpin a Hobgoblin , vědeckých nehod jako Doctor Octopus a Green Goblin a mimozemských symbiontů Venom a Carnage . Spider-Manovi občas pomáhají v jeho boji se zločinem další superhrdinové, včetně X-Men , Punisher , Blade , Doctor Strange , Daredevil , Iron Man , Captain America a Fantastická čtyřka 
    Hlavní
    Celý název a cesta                       : C:\Users\Tomáš\Downloads\Spiderman animated 1994-1998 DVDrip CZ komplet\S01\Spider-Man 01×01 - Ještěr z temnot (Night of the Lizard)_768x576-4.mp4
    Formát                                   : MPEG-4
    Format profile                           : Base Media
    Codec ID                                 : isom (isom/iso2/avc1/mp41)
    Velikost souboru                         : 415 MiB
    Duration                                 : 19 min 14 s
    Overall bit rate mode                    : Variable
    Celkový BitRate                          : 3 014 kb/s
    Frame rate                               : 25,000 FPS
    Encoded date                             : 2022-05-04 18:19:14 UTC
    Tagged date                              : 2022-05-04 18:19:14 UTC
    Použitý software                         : Lavf60.3.100

    Video
    ID                                       : 1
    Formát                                   : AVC
    Formát/Info                              : Advanced Video Codec
    Format profile                           : Main@L3.1
    Format settings                          : CABAC / 4 Ref Frames
    Format settings, CABAC                   : Ano
    Format settings, Reference frames        : 4 frames
    Codec ID                                 : avc1
    Codec ID/Info                            : Advanced Video Coding
    Duration                                 : 19 min 14 s
    Bit rate mode                            : Variable
    Bit rate                                 : 2 814 kb/s
    Maximum bit rate                         : 11,2 Mb/s
    Šířka                                    : 768pixely
    Výška                                    : 576pixely
    Poměr stran                              : 4:3
    Frame rate mode                          : Constant
    Frame rate                               : 25,000 FPS
    Color space                              : YUV
    Chroma subsampling                       : 4:2:0
    Bit depth                                : 8 bits
    Scan type                                : Progressive
    Bits/(Pixel*Frame)                       : 0.254
    Stream size                              : 387 MiB (93%)
    Encoded date                             : 2022-05-04 18:19:14 UTC
    Tagged date                              : 2022-05-04 18:19:14 UTC
    Codec configuration box                  : avcC

    Audio
    ID                                       : 2
    Formát                                   : AAC LC
    Formát/Info                              : Advanced Audio Codec Low Complexity
    Codec ID                                 : mp4a-40-2
    Duration                                 : 19 min 14 s
    Bit rate mode                            : Constant
    Bit rate                                 : 192 kb/s
    Kanál(y)                                 : 2 kanály
    Channel layout                           : L R
    Sampling rate                            : 48,0 kHz
    Frame rate                               : 46,875 FPS (1024 SPF)
    Compression mode                         : Lossy
    Stream size                              : 26,4 MiB (6%)
    Default                                  : Ano
    Alternate group                          : 1
    Encoded date                             : 2022-05-04 18:19:14 UTC
    Tagged date                              : 2022-05-04 18:19:14 UTC


    https://www.youtube.com/watch?v=GH8f7zHYwU0

    https://www.csfd.cz/film/72377-spiderman/prehled/
     








    llebo4, itzyk, keiwicz,

    + Pridaj vlastnu verziu tohto torrentu +


    Upozornenie:
    Ziadny zo zobrazených súborov sa nenachádza na tomto serveri. Server slúzi len k síreniu vlastnorucne vytvorených aplikácií, videí, hudby ai. Autori stránok nenesú ziadnu zodpovednost za zverejnené odkazy, komentáre a obsah súborov. Vsetky komentáre, odkazy, súbory ktoré by svojou povahou mohli byt v rozpore zo zákonmi sem vkladáte na vlastnú zodpovednost. Autori stránok si vyhradzujú právo cenzúry odkazov, komentárov príp. súborov, ktoré by svojou povahou mohli byt v rozpore zo zákonmi a dobrými mravmi. Dodrzujte pravidlá!





    0
    Manucao
    Ratio 0.21

    Clen

    29/06/2024 01.15.06
    Dočkáme sa niekedy aj seriálu Spider-Man z roku 1967, hm.


    --------------
    >> 29/06/2024 10.34.32
    UPLOADER: Ahoj,mam,ale jen Anglicky jazyk...


    --------------
    >> 29/06/2024 19.55.28
    UPLOADER: ...máš ho nahozený..



    --------------
    >> 07/07/2024 18.32.38
    Manucao: Ďakujem, ale mal som na mysli s cz/sk dabingom.  


    --------------
    >> 07/07/2024 18.38.11
    UPLOADER: Ahoj,to se asi sehnat v cz podle me vubec neda...


    --------------
    >> 12/07/2024 13.15.37
    Manucao: Predpokladám, že sa nenájde ani seriál z roku 1981, ktorý asi pred 20 rokmi vysiela ráno cez víkend TV JOJ.


    Back

    Na serveru se nenalézají zádne soubory. Za odkazy jsou výhradně zodpovědní uzivatelé a návstěvníci tohoto trackeru. Administrátor není zodpovědný za pridaný obsah ani za skody zpusobené uzivateli. Nesmíte pouzívat tuto webovou stránku pro distribuovaní nebo download zádného materiálu pokud nemáte povolení od príslusného vlastníka práv. Uzivatelé jsou zodpovědní za dodrzování těchto pravidel a podmínek. Owner má právo kdykoliv změnit pravidla tohoto trackeru.

    [ Script trval: 0.047 sec. ] - [ GZIP: enabled ]
    Je zhruba 15:16
    sql

    TOPlist