Tvoj účet nieje VIP.
Preto sú tvoje funkcie a možnosti značne obmedzené.
Pre aktiváciu VIP klikni sem.

SpongeBob ve filmu: Houba na uteku / The SpongeBob Movie: Sponge on the Run (CZ/SK/EN)(2020)(2160p-HEVC) = CSFD 60% | SkTorrent.eu

Cz-SkTorrent open Tracker, na volné zdielanie súborov. Pridajte sa k nasej komunite a získajte pristup k tisícom torrentov.

  • vysoká rýchlost
  • úplne zdarma
  • prevazne Slovenska a Ceska scena
  • ste tu s nami uz 5 rokov - Dakujeme
  • Vitaj Guest (Login) Ako stahovat
    torrenty?
    Torrenty:
    v1 textová
    v2 obrázková
    v3 online filmy
    Ako sa stat
    Uploaderom
    Online
    Filmy
    Forum
    Pravidlá
    BitTorrent
    klient
    Meno: Heslo:
    Zaregistrovat
    Po zaregistrovaní mozte volne stahovat
    Zabudol som heslo

    Torrent's details
    SpongeBob ve filmu: Houba na uteku / The SpongeBob Movie: Sponge on the Run (CZ/SK/EN)(2020)(2160p-HEVC) = CSFD 60% Názov:SpongeBob ve filmu: Houba na uteku / The SpongeBob Movie: Sponge on the Run (CZ/SK/EN)(2020)(2160p-HEVC) = CSFD 60% Hodnocení: Stiahnut
    Pozriet Online
    Kategória:UHD Filmy Velikost:13.1 GB BitTorrent klient
    Pridaný: Súbory:
    Skontrolován:2022-06-23 Peerov:16 (Seed: 16, Leech: 0)
    Zaner:Animovany,Dobrodruzny,Komedie,Rodinny Uploader:Uvidis, az ked budes
    VIP
    Kúp nám Pivo 1,10€

    Kúp nám Pivo
    Podporte nas na Facebooku !
    Pridaj do zalozky
    Pridaj do zalozky











    Animovaný / Komedie / Dobrodružný / Rodinný
    USA, 2020, 95 min


    Video: 2160p MKV HEVC
    Audio : CZ/SK/EN Dabing - AC-3 5.1- 640 kb/s
    Titulky : CZ/SK + Forced CZ/SK

    Režie: Tim Hill
    Scénář: Tim Hill, Jonathan Aibel, Glenn Berger
    Hudba: Hans Zimmer, Steve Mazzaro
    Hrají: Tom Kenny, Bill Fagerbakke, Carolyn Lawrence, Rodger Bumpass, Mr. Lawrence, Matt Berry, Snoop Dogg, (Keanu Reeves - ), Jill Talley,
    Produkce: Ryan Harris
    Zvuk: Gary Summers
    Scénografie: Lynne Naylor, Chris L. Spellman, Rachel Tiep-Daniels, Carla Curry
    Masky: Andrea Steele, Edward French, Scott Wheeler, Ken Diaz, Jani Kleinbard
    Kostýmy: Shawna L. Trapic, Alix Friedberg

    Náhled








    SpongeBob je nejoblíbenější mořská houba na světě a to nejen proto, že dělá ty vůbec nejlepší krabí hambáče. Chválil by ho zejména jeho šnečí mazlík Gary, kdyby ho ovšem právě kdosi neušnekl. A protože SpongeBob je doopravdy velký správňák, všeho nechá a vyrazí za Garyho záchranou. (CinemArt)



    Formát                                   : Matroska
    Format version                           : Version 4
    Velikost souboru                         : 13,1 GiB
    Duration                                 : 1 h 35 min
    Celkový BitRate                          : 19,7 Mb/s
    Encoded date                             : UTC 2022-06-22 21:14:10
    Použitý software                         : HandBrake 1.5.1 2022011000
    Enkódoval                                : Lavf58.76.100
    ErrorDetectionType                       : Per level 1

    Video
    ID                                       : 1
    Formát                                   : HEVC
    Formát/Info                              : High Efficiency Video Coding
    Format profile                           : Main@L5@Main
    Codec ID                                 : V_MPEGH/ISO/HEVC
    Duration                                 : 1 h 35 min
    Bit rate                                 : 17,4 Mb/s
    Šířka                                    : 3 840pixely
    Výška                                    : 2 160pixely
    Poměr stran                              : 1,85:1
    Frame rate mode                          : Constant
    Frame rate                               : 23,976 (24000/1001) FPS
    Color space                              : YUV
    Chroma subsampling                       : 4:2:0
    Bit depth                                : 8 bits
    Bits/(Pixel*Frame)                       : 0.088
    Stream size                              : 11,6 GiB (88%)
    Default                                  : Ano
    Forced                                   : Ne
    Color range                              : Limited
    Color primaries                          : BT.709
    Transfer characteristics                 : BT.709
    Matrix coefficients                      : BT.709

    Audio #1
    ID                                       : 2
    Formát                                   : E-AC-3
    Formát/Info                              : Enhanced AC-3
    Commercial name                          : Dolby Digital Plus
    Codec ID                                 : A_EAC3
    Duration                                 : 1 h 35 min
    Bit rate mode                            : Constant
    Bit rate                                 : 640 kb/s
    Kanál(y)                                 : 6 kanály
    Channel layout                           : L R C LFE Ls Rs
    Sampling rate                            : 48,0 kHz
    Frame rate                               : 31,250 FPS (1536 SPF)
    Compression mode                         : Lossy
    Stream size                              : 437 MiB (3%)
    Titul                                    : Surround
    Jazyk                                    : Czech
    Service kind                             : Complete Main
    Default                                  : Ano
    Forced                                   : Ne

    Audio #2
    ID                                       : 3
    Formát                                   : E-AC-3
    Formát/Info                              : Enhanced AC-3
    Commercial name                          : Dolby Digital Plus
    Codec ID                                 : A_EAC3
    Duration                                 : 1 h 35 min
    Bit rate mode                            : Constant
    Bit rate                                 : 640 kb/s
    Kanál(y)                                 : 6 kanály
    Channel layout                           : L R C LFE Ls Rs
    Sampling rate                            : 48,0 kHz
    Frame rate                               : 31,250 FPS (1536 SPF)
    Compression mode                         : Lossy
    Stream size                              : 437 MiB (3%)
    Titul                                    : Surround
    Jazyk                                    : Slovak
    Service kind                             : Complete Main
    Default                                  : Ne
    Forced                                   : Ne

    Audio #3
    ID                                       : 4
    Formát                                   : E-AC-3
    Formát/Info                              : Enhanced AC-3
    Commercial name                          : Dolby Digital Plus
    Codec ID                                 : A_EAC3
    Duration                                 : 1 h 35 min
    Bit rate mode                            : Constant
    Bit rate                                 : 640 kb/s
    Kanál(y)                                 : 6 kanály
    Channel layout                           : L R C LFE Ls Rs
    Sampling rate                            : 48,0 kHz
    Frame rate                               : 31,250 FPS (1536 SPF)
    Compression mode                         : Lossy
    Stream size                              : 437 MiB (3%)
    Titul                                    : Surround
    Jazyk                                    : English
    Service kind                             : Complete Main
    Default                                  : Ne
    Forced                                   : Ne

    Text #1
    ID                                       : 5
    Formát                                   : ASS
    Codec ID                                 : S_TEXT/ASS
    Codec ID/Info                            : Advanced Sub Station Alpha
    Duration                                 : 1 h 31 min
    Compression mode                         : Lossless
    Titul                                    : Czech
    Jazyk                                    : Czech
    Default                                  : Ne
    Forced                                   : Ne

    Text #2
    ID                                       : 6
    Formát                                   : ASS
    Codec ID                                 : S_TEXT/ASS
    Codec ID/Info                            : Advanced Sub Station Alpha
    Duration                                 : 1 h 31 min
    Compression mode                         : Lossless
    Titul                                    : Czech (Forced Narrative)
    Jazyk                                    : Czech
    Default                                  : Ne
    Forced                                   : Ne

    Text #3
    ID                                       : 7
    Formát                                   : ASS
    Codec ID                                 : S_TEXT/ASS
    Codec ID/Info                            : Advanced Sub Station Alpha
    Duration                                 : 1 h 31 min
    Compression mode                         : Lossless
    Titul                                    : Slovak
    Jazyk                                    : Slovak
    Default                                  : Ne
    Forced                                   : Ne

    Text #4
    ID                                       : 8
    Formát                                   : ASS
    Codec ID                                 : S_TEXT/ASS
    Codec ID/Info                            : Advanced Sub Station Alpha
    Duration                                 : 1 h 31 min
    Compression mode                         : Lossless
    Titul                                    : Slovak (Forced Narrative)
    Jazyk                                    : Slovak
    Default                                  : Ne
    Forced                                   : Ne








    ONLINE











    StandaRiha, Trismegistos, pepa49, mumukuBuco1,

    + Pridaj vlastnu verziu tohto torrentu +


    Upozornenie:
    Ziadny zo zobrazených súborov sa nenachádza na tomto serveri. Server slúzi len k síreniu vlastnorucne vytvorených aplikácií, videí, hudby ai. Autori stránok nenesú ziadnu zodpovednost za zverejnené odkazy, komentáre a obsah súborov. Vsetky komentáre, odkazy, súbory ktoré by svojou povahou mohli byt v rozpore zo zákonmi sem vkladáte na vlastnú zodpovednost. Autori stránok si vyhradzujú právo cenzúry odkazov, komentárov príp. súborov, ktoré by svojou povahou mohli byt v rozpore zo zákonmi a dobrými mravmi. Dodrzujte pravidlá!




    Uploader
    23/06/2022 12.54.29
    Zde máš web rip 4k zvuk není kino.

    0
    robert19791979
    Ratio 0.11

    Clen

    23/06/2022 08.47.56
    Prosim Vas Addams family 2 po slovensky nema niekto? teraz to pridalo hbo max dakujem pekne..este aj animak Ron ma chybu,alebo aj Rumble po slovensky neviem zohnat, myslim ze nas je viac ...dakujem


    --------------
    >> 23/06/2022 09.40.01
    harry51: https://sktorrent.eu/torrent/details.php?name=-The-Addams-Family-2-Addamsova-rodina-2-2021-WebRip-1080p-SK-z-kina-CSFD-42%&id=ef06f89a16d77aaf18238e08af99b974fa87c40e


    --------------
    >> 23/06/2022 10.19.08
    robert19791979: Zvuk z kina alebo obraz z kina to snad srandujes, uz neni 1990, sorry ale o tom som fakt nehovoril..


    --------------
    >> 23/06/2022 11.52.43
    Koryto01: zdravím ahoj, jak je to tedy s onou kvalitou a zdrojem, díky moc.


    --------------
    >> 23/06/2022 12.56.47
    robert19791979: Odpoved bola pre harry51….samozrejme

    1
    Diplo
    Ratio 1.11

    Member+

    23/06/2022 01.59.07
    Hustý, že taky někdo čte žádosti o nahození a něco sem z toho přidá.


    Back

    Na serveru se nenalézají zádne soubory. Za odkazy jsou výhradně zodpovědní uzivatelé a návstěvníci tohoto trackeru. Administrátor není zodpovědný za pridaný obsah ani za skody zpusobené uzivateli. Rozsirovat stránku nebo její obsah bez souhlasu ownera je zakázano. Nesmíte pouzívat tuto webovou stránku pro distribuovaní nebo download zádného materiálu pokud nemáte povolení od príslusného vlastníka práv. Uzivatelé jsou zodpovědní za dodrzování těchto pravidel a podmínek. Owner má právo kdykoliv změnit pravidla tohoto trackeru.

    [ Script trval: 0.031 sec. ] - [ GZIP: enabled ]
    Je zhruba 16:46
    memcache

    TOPlist