Tvoj účet nieje VIP.
Preto sú tvoje funkcie a možnosti značne obmedzené.
Pre aktiváciu VIP klikni sem.

Star Wars Episode VI - Return of the Jedi (Navrat Jediho)(SE)(1983)(Remastered)(1080p)(BluRay)(CZ/EN) = CSFD 87% | SkTorrent.eu

Cz-SkTorrent open Tracker, na volné zdielanie súborov. Pridajte sa k nasej komunite a získajte pristup k tisícom torrentov.

  • vysoká rýchlost
  • úplne zdarma
  • prevazne Slovenska a Ceska scena
  • ste tu s nami uz 5 rokov - Dakujeme
  • Vitaj Guest (Login) Ako stahovat
    torrenty?
    Torrenty:
    v1 textová
    v2 obrázková
    v3 online filmy
    Ako sa stat
    Uploaderom
    Online
    Filmy
    Forum
    Pravidlá
    BitTorrent
    klient
    Meno: Heslo:
    Zaregistrovat
    Po zaregistrovaní mozte volne stahovat
    Zabudol som heslo

    Torrent's details
    Star Wars Episode VI - Return of the Jedi (Navrat Jediho)(SE)(1983)(Remastered)(1080p)(BluRay)(CZ/EN) = CSFD 87% Názov:Star Wars Episode VI - Return of the Jedi (Navrat Jediho)(SE)(1983)(Remastered)(1080p)(BluRay)(CZ/EN) = CSFD 87% Hodnocení: Stiahnut
    Pozriet Online
    Kategória:HD Filmy Velikost:33.9 GB BitTorrent klient
    Pridaný: Súbory:
    Skontrolován:2021-07-30 Peerov:3 (Seed: 3, Leech: 0)
    Zaner:Akcni,Dobrodruzny,Fantasy,Sci-Fi Uploader:Uvidis, az ked budes
    VIP
    Kúp nám Pivo 1,10€

    Kúp nám Pivo
    Podporte nas na Facebooku !
    Pridaj do zalozky
    Pridaj do zalozky








    Star Wars Episode VI - Return of the Jedi
    (Navrat Jediho) (1983) (Remastered) (Special Edition)
    BleRay rip ( Verze 2019) CZ a púvodní dabing + CZ tit


                   










    Sci-Fi / Dobrodružný / Fantasy / Akční
    USA, 1983, 131 min (Special Edition: 134 min)
    Režie: Richard Marquand
    Scénář: Lawrence Kasdan, George Lucas
    Kamera: Alan Hume, Alec Mills
    Hudba: John Williams
    Hrají: Mark Hamill, Harrison Ford, Carrie Fisher, Billy Dee Williams, Anthony Daniels, Peter Mayhew, Ian McDiarmid, Frank Oz, James Earl Jones




    Luke Skywalker nechce nechat svého přítele Han Sola uvězněného v karbonitu, a proto přilétá na svou rodnou planetu Tatooine, aby ho zachránil. Solo je teď v rukou Jabby Hutta, který Sola získal z rukou lovce, Boba Fetty. O záchranu Sola se však pokusila i princezna Leia se svými přáteli. Bohužel neuspěli a jsou také v držení odporného Jabby. Luke se nechá Jabbovými poskoky naoko chytit a ve chvíli, kdy mají být on a jeho přátelé předhozeni pouštnímu monstru, všechny osvobodí. Luke následně odlétá na planetu Dagobah, kde vyhledá starého mistra Yodu. Luke po něm chce dokončení výcviku, místo toho se však od umírajícího Yody dozvídá, že je hotovým Jediem. Yoda také Lukovi oznámí, že je poslední nadějí Jediů při boji s Temnou sílou a jejími představiteli, Darth Vaderem (Lukův otec) a císařem Palpatinem. Po smrti Yody se Lukovi zjeví Obi-Wan a oznámí mu, že princezna Leia je ve skutečnosti jeho sestrou. Císař zatím dokončuje novou bitevní stanici, Hvězdu smrti. S ní hodlá úplně rozdrtit povstalce a donutit Luka, aby přešel na jeho stranu. Společně s Lukovým otcem, Darth Vaderem, by pak byli navěky neporazitelní. Luke se vrací za svými přáteli a společně s nimi plánuje útok na Hvězdu smrti. Plán je jednoduchý – část povstalců vedená Solem se má vylodit na měsíci Endoru, kde je ovládací stanice ochranného štítu Hvězdy smrti. Solo se svými lidmi má tuto stanici zničit, a tím Hvězdu připravit o její ochranu. Toho mají využít letecké jednotky povstalců a mají na Hvězdu smrti zaútočit a zničit její energetické zdroje..








    Formát                                   : Matroska
    Format version                           : Version 4
    Velikost souboru                         : 33,9 GiB
    Duration                                 : 2 h 14 min
    Overall bit rate mode                    : Variable
    Celkový BitRate                          : 36,0 Mb/s
    Název filmu                              : Star Wars Episode VI - Return of the Jedi (Návrat Jediho)(1983)(SE)(Remastered)(MAX verze)(1080p)(BluRay)(CZ-EN) PHDTeam 2021
    Encoded date                             : UTC 2021-07-30 17:57:10
    Použitý software                         : mkvmerge v59.0.0 ('Shining Star') 64-bit
    Enkódoval                                : libebml v1.4.2 + libmatroska v1.6.4

    Video
    ID                                       : 1
    Formát                                   : AVC
    Formát/Info                              : Advanced Video Codec
    Format profile                           : High@L4.1
    Format settings                          : CABAC / 4 Ref Frames
    Format settings, CABAC                   : Ano
    Format settings, Reference frames        : 4 frames
    Codec ID                                 : V_MPEG4/ISO/AVC
    Duration                                 : 2 h 14 min
    Bit rate mode                            : Variable
    Bit rate                                 : 30,5 Mb/s
    Maximum bit rate                         : 36,8 Mb/s
    Šířka                                    : 1 920pixely
    Výška                                    : 1 080pixely
    Poměr stran                              : 16:9
    Frame rate mode                          : Constant
    Frame rate                               : 23,976 (24000/1001) FPS
    Color space                              : YUV
    Chroma subsampling                       : 4:2:0
    Bit depth                                : 8 bits
    Scan type                                : Progressive
    Bits/(Pixel*Frame)                       : 0.613
    Stream size                              : 28,7 GiB (85%)
    Titul                                    : Star Wars Episode VI - Return of the Jedi (Návrat Jediho)(1983)(Remastered)(MAX verze)(1080p)(BluRay)(CZ-SK-EN) PHDTeam
    Default                                  : Ano
    Forced                                   : Ne
    Color range                              : Limited
    Color primaries                          : BT.709
    Transfer characteristics                 : BT.709
    Matrix coefficients                      : BT.709

    Audio #1
    ID                                       : 2
    Formát                                   : DTS ES XXCH XLL
    Formát/Info                              : Digital Theater Systems
    Commercial name                          : DTS-HD Master Audio
    Codec ID                                 : A_DTS
    Duration                                 : 2 h 14 min
    Bit rate mode                            : Variable
    Bit rate                                 : 4 553 kb/s
    Kanál(y)                                 : 7 kanály
    Channel layout                           : C L R Ls Rs LFE Cb
    Sampling rate                            : 48,0 kHz
    Frame rate                               : 93,750 FPS (512 SPF)
    Bit depth                                : 24 bits
    Compression mode                         : Lossless
    Stream size                              : 4,29 GiB (13%)
    Titul                                    : EN DTS-HD Master Audio
    Jazyk                                    : English
    Default                                  : Ne
    Forced                                   : Ne

    Audio #2
    ID                                       : 3
    Formát                                   : AC-3
    Formát/Info                              : Audio Coding 3
    Commercial name                          : Dolby Digital
    Codec ID                                 : A_AC3
    Duration                                 : 2 h 14 min
    Bit rate mode                            : Constant
    Bit rate                                 : 448 kb/s
    Kanál(y)                                 : 6 kanály
    Channel layout                           : L R C LFE Ls Rs
    Sampling rate                            : 48,0 kHz
    Frame rate                               : 31,250 FPS (1536 SPF)
    Compression mode                         : Lossy
    Stream size                              : 432 MiB (1%)
    Titul                                    : CZ AC3 DD 5,1
    Jazyk                                    : Czech
    Service kind                             : Complete Main
    Default                                  : Ano
    Forced                                   : Ne

    Audio #3
    ID                                       : 4
    Formát                                   : AC-3
    Formát/Info                              : Audio Coding 3
    Commercial name                          : Dolby Digital
    Codec ID                                 : A_AC3
    Duration                                 : 2 h 14 min
    Bit rate mode                            : Constant
    Bit rate                                 : 224 kb/s
    Kanál(y)                                 : 2 kanály
    Channel layout                           : L R
    Sampling rate                            : 48,0 kHz
    Frame rate                               : 31,250 FPS (1536 SPF)
    Compression mode                         : Lossy
    Stream size                              : 216 MiB (1%)
    Titul                                    : EN AC3 DD 2,0
    Jazyk                                    : English
    Service kind                             : Complete Main
    Default                                  : Ne
    Forced                                   : Ne

    Audio #4
    ID                                       : 5
    Formát                                   : AC-3
    Formát/Info                              : Audio Coding 3
    Commercial name                          : Dolby Digital
    Codec ID                                 : A_AC3
    Duration                                 : 2 h 14 min
    Bit rate mode                            : Constant
    Bit rate                                 : 224 kb/s
    Kanál(y)                                 : 2 kanály
    Channel layout                           : L R
    Sampling rate                            : 48,0 kHz
    Frame rate                               : 31,250 FPS (1536 SPF)
    Compression mode                         : Lossy
    Stream size                              : 216 MiB (1%)
    Titul                                    : EN AC3 DD 2.0 Commentary
    Jazyk                                    : English
    Service kind                             : Complete Main
    Default                                  : Ne
    Forced                                   : Ne

    Text #1
    ID                                       : 6
    Formát                                   : PGS
    Muxing mode                              : zlib
    Codec ID                                 : S_HDMV/PGS
    Codec ID/Info                            : Picture based subtitle format used on BDs/HD-DVDs
    Duration                                 : 2 h 12 min
    Bit rate                                 : 30,4 kb/s
    Count of elements                        : 2010
    Stream size                              : 28,8 MiB (0%)
    Titul                                    : EN tit
    Jazyk                                    : English
    Default                                  : Ne
    Forced                                   : Ne

    Text #2
    ID                                       : 7
    Formát                                   : PGS
    Muxing mode                              : zlib
    Codec ID                                 : S_HDMV/PGS
    Codec ID/Info                            : Picture based subtitle format used on BDs/HD-DVDs
    Duration                                 : 2 h 14 min
    Bit rate                                 : 26,7 kb/s
    Count of elements                        : 1938
    Stream size                              : 25,7 MiB (0%)
    Titul                                    : CZ tit
    Jazyk                                    : Czech
    Default                                  : Ne
    Forced                                   : Ne

    Text #3
    ID                                       : 8
    Formát                                   : PGS
    Muxing mode                              : zlib
    Codec ID                                 : S_HDMV/PGS
    Codec ID/Info                            : Picture based subtitle format used on BDs/HD-DVDs
    Duration                                 : 2 h 14 min
    Bit rate                                 : 1 328 b/s
    Count of elements                        : 256
    Stream size                              : 1,28 MiB (0%)
    Titul                                    : EN tit
    Jazyk                                    : English
    Default                                  : Ne
    Forced                                   : Ne



















    Swixin, Hunter99, Ondras66, kanar9999, orionn, Harper66, M4Ri0Cz,

    + Pridaj vlastnu verziu tohto torrentu +


    Upozornenie:
    Ziadny zo zobrazených súborov sa nenachádza na tomto serveri. Server slúzi len k síreniu vlastnorucne vytvorených aplikácií, videí, hudby ai. Autori stránok nenesú ziadnu zodpovednost za zverejnené odkazy, komentáre a obsah súborov. Vsetky komentáre, odkazy, súbory ktoré by svojou povahou mohli byt v rozpore zo zákonmi sem vkladáte na vlastnú zodpovednost. Autori stránok si vyhradzujú právo cenzúry odkazov, komentárov príp. súborov, ktoré by svojou povahou mohli byt v rozpore zo zákonmi a dobrými mravmi. Dodrzujte pravidlá!





    0
    M4Ri0Cz
    Ratio 10.43

    Member+

    01/08/2021 15.55.08
    Diky za vsechny tyto krasne filmy v takovem formatu. Bylo by mozno udelat takto Film EnemyMine z 85 roku? To co je tady na torrentu je nekoukatelne. Diky za skvelou praci.


    --------------
    >> 01/08/2021 19.39.35
    UPLOADER: Jo mám a spravím  a možná aj dnes večír...


    --------------
    >> 01/08/2021 21.12.26
    UPLOADER: Tak sem to nahodil a to hned 3 verzii


    --------------
    >> 01/08/2021 22.17.31
    UPLOADER: Už to tam máš chlape..


    --------------
    >> 02/08/2021 00.38.10
    M4Ri0Cz: Uz jsem si vsimnul to byla rychlost, velike diky

    0
    Swixin
    Ratio 0.43

    Clen

    01/08/2021 12.44.18
    Serus , dakujem za SW torrent a chcel by som sa ta spytat ci by si nevedel zohnat aj Harry Potter filmy v dakej takej kvalite plus CZ /SK/ENG jazyk


    --------------
    >> 01/08/2021 19.38.58
    UPLOADER:
    Quote:
    Serus , dakujem za SW torrent a chcel by som sa ta spytat ci by si nevedel zohnat aj Harry Potter filmy v dakej takej kvalite plus CZ /SK/ENG jazyk

    To tu už nekdo dával v posledním case.. ak nenajdeš tak ich pridám z každýho mám 2 až 3 BluRay verze a každý je s iným dabingom

    0
    Harper66
    Ratio 0.36

    Clen

    01/08/2021 07.03.28
    Diky za další díl a taky by mě zajímalo jak to bude s tím novým dabingem a Star Wars Klony útočí.

    1
    Hunter99
    Ratio 1.66

    Member+

    31/07/2021 23.37.59
    Ještě se chci zeptat, kdy bude ten 2 díl SW ve fullhd?  


    --------------
    >> 01/08/2021 09.50.59
    UPLOADER: dmes nebo zitra

    1
    davos8000
    Ratio 0.31

    Clen

    31/07/2021 14.15.48
    Díky za Rambo 1-2-3 CZ dabing remastered

    Díky za SW 4-5-6 CZ dabing remastered

    0
    Ondras66
    Ratio 0.32

    Clen

    31/07/2021 07.51.56
    Jj, nebylo by to špatný kdyby si přidal nejnovější dabing. Snad bude sedět na tuto verzi.

    0
    Hunter99
    Ratio 1.66

    Member+

    31/07/2021 07.03.43
    Ahoj, muzes sem hodit ten nejnovejsi cz dabing pro epizodu 4-6 s podrobnym navodem na vlozeni pres mkvtool? Jestli to neni tezky, tak by si to kazdy mohl udelat sam, kdo o to stoji.

    Jinak diky!!


    Back

    Na serveru se nenalézají zádne soubory. Za odkazy jsou výhradně zodpovědní uzivatelé a návstěvníci tohoto trackeru. Administrátor není zodpovědný za pridaný obsah ani za skody zpusobené uzivateli. Rozsirovat stránku nebo její obsah bez souhlasu ownera je zakázano. Nesmíte pouzívat tuto webovou stránku pro distribuovaní nebo download zádného materiálu pokud nemáte povolení od príslusného vlastníka práv. Uzivatelé jsou zodpovědní za dodrzování těchto pravidel a podmínek. Owner má právo kdykoliv změnit pravidla tohoto trackeru.

    [ Script trval: 0.308 sec. ] - [ GZIP: enabled ]
    Je zhruba 15:14

    TOPlist