Tvoj účet nieje VIP.
Preto sú tvoje funkcie a možnosti značne obmedzené.
Pre aktiváciu VIP klikni sem.

Statecne srdce / Braveheart (1995)(CZ) = CSFD 88% | SkTorrent.eu

Cz-SkTorrent open Tracker, na volné zdielanie súborov. Pridajte sa k nasej komunite a získajte pristup k tisícom torrentov.

  • vysoká rýchlost
  • úplne zdarma
  • prevazne Slovenska a Ceska scena
  • ste tu s nami uz 5 rokov - Dakujeme
  • Vitaj Guest (Login) Ako stahovat
    torrenty?
    Torrenty:
    v1 textová
    v2 obrázková
    Ako sa stat
    Uploaderom
    Online
    Filmy
    Forum
    Pravidlá
    BitTorrent
    klient
    Meno: Heslo:
    Zaregistrovat
    Po zaregistrovaní mozte volne stahovat
    Zabudol som heslo

    Statecne srdce / Braveheart (1995)(CZ) = CSFD 88% Názov:Statecne srdce / Braveheart (1995)(CZ) = CSFD 88% Hodnocení: Stiahnut
    Pozriet Online
    Kategória:Filmy CZ/SK dabing Velikost:1.2 GB BitTorrent klient
    Pridaný: Súbory:
    Skontrolován:2014-02-10 Peerov:2 (Seed: 2, Leech: 0)
    Zaner:Akcni,Drama,Historicky,Romanticky Uploader:Uvidis, az ked budes
    VIP
    Kúp nám Pivo 1,10€

    Kúp nám Pivo
    Pridaj do zalozky
    Pridaj do zalozky







    Statečné srdce / Braveheart (1995)




    Jazyk: český 2.0
    Titulky: nejsou
    Bitrate audia: 128 kbps
    Bitrate videa: 888 kbps
    Odkaz na CSFD: http://www.csfd.cz/film/3297-statecne-srdce
    Rok vydání: 1995
    Délka: 02:50:23
    Žánr: Drama / Historický / Romantický / Akční

    Screenshot:
           

    Mediainfo:
    General
    Complete name: C:xxxxxxxxxxxxSTATEČNÉ SRDCE (DVDrip CZ)statečné.srdce.avi
    Format: AVI
    Format/Info: Audio Video Interleave
    File size: 1.22 GiB
    Duration: 2h 50mn
    Overall bit rate: 1 026 Kbps
    Writing library: VirtualDub build 30016/release

    Video
    ID: 0
    Format: MPEG-4 Visual
    Format settings, BVOP: Yes
    Format settings, QPel: No
    Format settings, GMC: No warppoints
    Format settings, Matrix: Default (H.263)
    Muxing mode: Packed bitstream
    Codec ID: DX50
    Codec ID/Hint: DivX 5
    Duration: 2h 50mn
    Bit rate: 888 Kbps
    Width: 640 pixels
    Height: 272 pixels
    Display aspect ratio: 2.35:1
    Frame rate: 25.000 fps
    Color space: YUV
    Chroma subsampling: 4:2:0
    Bit depth: 8 bits
    Scan type: Progressive
    Bits/(Pixel*Frame): 0.204
    Stream size: 1.06 GiB (87%)
    Writing library: DivX 6.4.0 (UTC 2006-10-03)

    Audio
    ID: 1
    Format: MPEG Audio
    Format version: Version 1
    Format profile: Layer 3
    Mode: Joint stereo
    Codec ID: 55
    Codec ID/Hint: MP3
    Duration: 2h 50mn
    Bit rate mode: Constant
    Bit rate: 128 Kbps
    Channel(s): 2 channels
    Sampling rate: 48.0 KHz
    Stream size: 156 MiB (12%)
    Alignment: Split accross interleaves
    Interleave, duration: 40 ms (1.00 video frame)
    Interleave, preload duration: 500 ms
    Writing library: LAME3.97 (beta)




    Statečné srdce - Braveheart, USA, 1995
    ((Mel Gibson - ); James Cosmo; Sean McGinley; Ralph Riach; Brian Cox)

    Film je inspirovaný skutečnou historickou postavou Williama Wallace, který se v 13.století postavil do čela odporu proti anglickému králi Eduardovi I. William se tajně oženil, aby se jeho žena Murron Marn vyhnula králem nařízenému právu první noci. Jednoho dne se ji však pokusí znásilnit angličtí vojáci, a když ji William brání, je prohlášen za psance a Murron popravena. Wallace se postaví do čela odporu proti anglické vrchnosti a získává spojence v princezně Isabelle, díky které se vyhne většině králových nástrah. Nakonec je však Wallace kvůli zradě vlastního vojska zajat...

    Režie: (Mel Gibson - )
    Hrají: (Mel Gibson - ), James Cosmo, Sean McGinley, Ralph Riach, Brian Cox, Patrick McGoohan, Peter Hanly, Sophie Marceau, Barry McGovern, Angus Macfadyen, John Kavanagh, Alun Armstrong, Catherine McCormack, Brendan Gleeson, Tommy Flanagan, Michael Byrne, Ian Bannen, Peter Mullan, Gerard McSorley, David O'Hara, David Gant, Alex Norton













    ONLINE











    honzo123, missisko, Charlesp, svedak,

    + Pridaj vlastnu verziu tohto torrentu +


    Upozornenie:
    Ziadny zo zobrazených súborov sa nenachádza na tomto serveri. Server slúzi len k síreniu vlastnorucne vytvorených aplikácií, videí, hudby ai. Autori stránok nenesú ziadnu zodpovednost za zverejnené odkazy, komentáre a obsah súborov. Vsetky komentáre, odkazy, súbory ktoré by svojou povahou mohli byt v rozpore zo zákonmi sem vkladáte na vlastnú zodpovednost. Autori stránok si vyhradzujú právo cenzúry odkazov, komentárov príp. súborov, ktoré by svojou povahou mohli byt v rozpore zo zákonmi a dobrými mravmi. Dodrzujte pravidlá!


    No comments...


    Back

    Na serveru se nenalézají zádne soubory. Za odkazy jsou výhradně zodpovědní uzivatelé a návstěvníci tohoto trackeru. Administrátor není zodpovědný za pridaný obsah ani za skody zpusobené uzivateli. Nesmíte pouzívat tuto webovou stránku pro distribuovaní nebo download zádného materiálu pokud nemáte povolení od príslusného vlastníka práv. Uzivatelé jsou zodpovědní za dodrzování těchto pravidel a podmínek. Owner má právo kdykoliv změnit pravidla tohoto trackeru.

    [ Script trval: 0.022 sec. ] - [ GZIP: enabled ]
    Je zhruba 06:53
    sql

    TOPlist