Tvoj účet nieje VIP.
Preto sú tvoje funkcie a možnosti značne obmedzené.
Pre aktiváciu VIP klikni sem.

Steins Gate Fuka Ryouiki no Deja vu / Steins Gate The Movie Burdened Domain Of Deja Vu (2013)(JP/EN+CZtit.)[1080p] = CSFD 79% | SkTorrent.eu

Cz-SkTorrent open Tracker, na volné zdielanie súborov. Pridajte sa k nasej komunite a získajte pristup k tisícom torrentov.

  • vysoká rýchlost
  • úplne zdarma
  • prevazne Slovenska a Ceska scena
  • ste tu s nami uz 5 rokov - Dakujeme
  • Vitaj Guest (Login) Ako stahovat
    torrenty?
    Torrenty:
    v1 textová
    v2 obrázková
    v3 online filmy
    Ako sa stat
    Uploaderom
    Online
    Filmy
    Forum
    Pravidlá
    BitTorrent
    klient
    Meno: Heslo:
    Zaregistrovat
    Po zaregistrovaní mozte volne stahovat
    Zabudol som heslo

    Torrent's details
    Steins Gate Fuka Ryouiki no Deja vu /  Steins Gate The Movie Burdened Domain Of Deja Vu (2013)(JP/EN+CZtit.)[1080p] = CSFD 79% Názov:Steins Gate Fuka Ryouiki no Deja vu / Steins Gate The Movie Burdened Domain Of Deja Vu (2013)(JP/EN+CZtit.)[1080p] = CSFD 79% Hodnocení: Stiahnut
    Pozriet Online
    Kategória:Filmy s titulkama Velikost:8.7 GB BitTorrent klient
    Pridaný: Súbory:
    Skontrolován:2022-01-17 Peerov:1 (Seed: 1, Leech: 0)
    Zaner:Animovany,Drama,Mysteriozni,Psychologicky Uploader:Uvidis, az ked budes
    VIP
    Kúp nám Pivo 1,10€

    Kúp nám Pivo
    Podporte nas na Facebooku !
    Pridaj do zalozky
    Pridaj do zalozky




    Steins;Gate: Fuka Ryouiki no Deja vu / Steins;Gate The Movie: Burdened Domain Of Déjà Vu (2013)



         

    Jazyk: japonský, anglický
    Titulky: české, anglické
    Zdroj českých tituliek: http://neoexorcist.cz -  Dante
    Žáner: Animovaný / Drama / Mysteriózní / Psychologický / Sci-Fi
    Témy: Anime, Cestování časem, Romantika, Sci-fi, Seinen
    Japonsko, 2013, 90 min

    Režie:  Kandži Wakabajaši, Hiroši Hamasaki, Takuja Sató
    Předloha: Čijomaru Šikura (kniha)
    Scénář: Džukki Hanada
    Kamera:Tomojuki Šiokawa
    Hudba: Džun Murakami, Takeši Abo
    Japonský dabing: Mamoru Miyano, Asami Imai, Kana Hanazawa, Tomokazu Seki, Yukari Tamura, Yū Kobayashi, Haruko Momoi, Saori Gotō, Masaki Terasoma, Ayano Yamamoto,...
    Anglický dabing: John Michael Tatum, Trina Nishimura, Ashly Burch, Tyson Rinehart, Cherami Leigh, Lindsay Seidel, Jad Saxton, Jessica Cavanagh, Christopher Sabat, Brina Palencia,...

    Predtím, než začnete, pozrite si:
    1. Steins;Gate - 1. serie (2011) od 1. až po epizódu 22.
    2. Steins;Gate 0 (2018) - všetky epizódy
    3. Steins;Gate - 1. serie (2011) od 23. až po epizódu 24.

    Popis
    Děj se odehrává rok po konci seriálu.

    Poznámka: Obal ani pozadie sú z predošlej série (kvôli spoilerom).





       

    Hlavní
    Format: Matroska
    Format version: Version 4
    File size: 8.67 GiB
    Duration: 1 h 30 min
    Overall bit rate mode: Variable
    Overall bit rate: 13.8 Mb/s
    Movie name: Steins;Gate - The Movie - Load Region of Deja Vu
    Encoded date: UTC 2022-01-13 11:26:36
    Writing application: mkvmerge v63.0.0 ('Everything') 64-bit
    Writing library: libebml v1.4.2 + libmatroska v1.6.4

    Video
    Format: AVC
    Format/Info: Advanced Video Codec
    Format profile: High 10@L4
    Format settings: CABAC / 4 Ref Frames
    Format settings, CABAC: Yes
    Format settings, Reference frames: 4 frames
    Codec ID: V_MPEG4/ISO/AVC
    Duration: 1 h 30 min
    Bit rate: 11.4 Mb/s
    Width: 1 920 pixels
    Height: 1 080 pixels
    Display aspect ratio: 16:9
    Frame rate mode: Constant
    Frame rate: 23.976 (24000/1001) FPS
    Color space: YUV
    Chroma subsampling: 4:2:0
    Bit depth: 10 bits
    Scan type: Progressive
    Bits/(Pixel*Frame): 0.230
    Stream size: 7.20 GiB (83%)
    Writing library: x264 core 148 r2721kMod 72d53ab
    Language: Japanese
    Default: Yes
    Forced: No
    Color range: Limited
    Matrix coefficients: BT.709

    Audio #1
    Format: FLAC
    Format/Info: Free Lossless Audio Codec
    Codec ID: A_FLAC
    Duration: 1 h 30 min
    Bit rate mode: Variable
    Bit rate: 1 217 kb/s
    Channel(s): 6 channels
    Channel layout: L R C LFE Ls Rs
    Sampling rate: 48.0 kHz
    Frame rate: 11.719 FPS (4096 SPF)
    Bit depth: 16 bits
    Compression mode: Lossless
    Stream size: 784 MiB (9%)
    Writing library: libFLAC 1.2.1 (UTC 2007-09-17)
    Language: Japanese
    Default: Yes
    Forced: No

    Audio #2
    Format: FLAC
    Format/Info: Free Lossless Audio Codec
    Codec ID: A_FLAC
    Duration: 1 h 30 min
    Bit rate mode: Variable
    Bit rate: 1 129 kb/s
    Channel(s): 6 channels
    Channel layout: L R C LFE Ls Rs
    Sampling rate: 48.0 kHz
    Frame rate: 11.719 FPS (4096 SPF)
    Bit depth: 16 bits
    Compression mode: Lossless
    Stream size: 727 MiB (8%)
    Writing library: libFLAC 1.2.1 (UTC 2007-09-17)
    Language: English
    Default: No
    Forced: No

    Text #1
    Format: ASS
    Codec ID: S_TEXT/ASS
    Codec ID/Info: Advanced Sub Station Alpha
    Duration: 1 h 26 min
    Bit rate: 137 b/s
    Count of elements: 1305
    Compression mode: Lossless
    Stream size: 87.9 KiB (0%)
    Language: Czech
    Default: Yes
    Forced: No

    Text #2
    Format: ASS
    Codec ID: S_TEXT/ASS
    Codec ID/Info: Advanced Sub Station Alpha
    Duration: 1 h 28 min
    Bit rate: 249 b/s
    Count of elements: 2332
    Compression mode: Lossless
    Stream size: 162 KiB (0%)
    Title: Dialogue
    Language: English
    Default: No
    Forced: No


    Pre lepšie vyhľadávanie anime na webe SKT si nastavte vo vyhľadávaní kategóriu Animovany








    pohee, ragnarock,

    + Pridaj vlastnu verziu tohto torrentu +


    Upozornenie:
    Ziadny zo zobrazených súborov sa nenachádza na tomto serveri. Server slúzi len k síreniu vlastnorucne vytvorených aplikácií, videí, hudby ai. Autori stránok nenesú ziadnu zodpovednost za zverejnené odkazy, komentáre a obsah súborov. Vsetky komentáre, odkazy, súbory ktoré by svojou povahou mohli byt v rozpore zo zákonmi sem vkladáte na vlastnú zodpovednost. Autori stránok si vyhradzujú právo cenzúry odkazov, komentárov príp. súborov, ktoré by svojou povahou mohli byt v rozpore zo zákonmi a dobrými mravmi. Dodrzujte pravidlá!




    Uploader
    17/01/2022 19.39.41
    V ako poradí sledovať seriál Steins;Gate?

    1. Steins Gate - 1. serie (2011) od 1. až po epizódu 22
    2. Steins Gate 0 (2018) - všetky epizódy
    3. Steins Gate - 1. serie (2011) od 23. až po epizódu 24
    4. Steins Gate Fuka Ryouiki no Deja vu / Steins Gate The Movie Burdened Domain Of Deja Vu (2013)


    Back

    Na serveru se nenalézají zádne soubory. Za odkazy jsou výhradně zodpovědní uzivatelé a návstěvníci tohoto trackeru. Administrátor není zodpovědný za pridaný obsah ani za skody zpusobené uzivateli. Rozsirovat stránku nebo její obsah bez souhlasu ownera je zakázano. Nesmíte pouzívat tuto webovou stránku pro distribuovaní nebo download zádného materiálu pokud nemáte povolení od príslusného vlastníka práv. Uzivatelé jsou zodpovědní za dodrzování těchto pravidel a podmínek. Owner má právo kdykoliv změnit pravidla tohoto trackeru.

    [ Script trval: 0.028 sec. ] - [ GZIP: enabled ]
    Je zhruba 01:21
    sql

    TOPlist