Tvoj účet nieje VIP.
Preto sú tvoje funkcie a možnosti značne obmedzené.
Pre aktiváciu VIP klikni sem.

T2 Trainspotting / T2 Trainspotting (2017)(CZ/EN)(2160p 4K BRRip) = CSFD 74% | SkTorrent.eu

Cz-SkTorrent open Tracker, na volné zdielanie súborov. Pridajte sa k nasej komunite a získajte pristup k tisícom torrentov.

  • vysoká rýchlost
  • úplne zdarma
  • prevazne Slovenska a Ceska scena
  • ste tu s nami uz 5 rokov - Dakujeme
  • Vitaj Guest (Login) Ako stahovat
    torrenty?
    Torrenty:
    v1 textová
    v2 obrázková
    v3 online filmy
    Ako sa stat
    Uploaderom
    Online
    Filmy
    Forum
    Pravidlá
    BitTorrent
    klient
    Meno: Heslo:
    Zaregistrovat
    Po zaregistrovaní mozte volne stahovat
    Zabudol som heslo

    Torrent's details
    T2 Trainspotting / T2 Trainspotting (2017)(CZ/EN)(2160p 4K BRRip) = CSFD 74% Názov:T2 Trainspotting / T2 Trainspotting (2017)(CZ/EN)(2160p 4K BRRip) = CSFD 74% Hodnocení:N/A Stiahnut
    Pozriet Online
    Kategória:UHD Filmy Velikost:32.1 GB BitTorrent klient
    Pridaný: Súbory:
    Skontrolován:2021-07-26 Peerov:6 (Seed: 6, Leech: 0)
    Zaner:Drama Uploader:Uvidis, az ked budes
    VIP
    Kúp nám Pivo 1,10€

    Kúp nám Pivo
    Podporte nas na Facebooku !
    Pridaj do zalozky
    Pridaj do zalozky






    T2 Trainspotting / T2 Trainspotting
    (2017)(CZ/EN) = CSFD 74%

    2160p 4K HDR10 - HEVC – 39.1 Mb/s Bitrate verzia


    ... Na zelanie ...






    Video: 2160p 4K HDR10 - HEVC
    Jazyk: CZ 5.1 DD / EN 7.1 TrueHD / EN 5.1 DD
    Titulky: CZ Full + Forced
    Drama
    GBR 2017
    117 min

    PRODUKCE & HERCI

    Režie: Danny Boyle
    Předloha: Irvine Welsh (kniha)
    Scénář: John Hodge
    Kamera: Anthony Dod Mantle
    Hrají: Ewan McGregor, Jonny Lee Miller, Robert Carlyle, Ewen Bremner, Kelly Macdonald, Anjela Nedyalkova, Shirley Henderson, Irvine Welsh, Simon Weir, Steven Robertson, Gordon Kennedy, Kevin McKidd (a.z.), Amy Manson, Pauline Lynch, Tereza Dušková, James Cosmo, Logan Gillies, Ben Skelton, Aiden Haggarty, Daniel Smith, Elijah Wolf, John Kazek, Charlie Hardie, Scott Aitken, Elek Kish, Lewis Gribben, Dominic Maccoll, Calum Verrecchia, Bradley Welsh, Thierry Mabonga, Atta Yaqub, Christopher Douglas, Pauline Turner, Scot Greenan, James McElvar, Connor McIndoe, Bryan Quinn, Ged Hanley, Neil Thomson, Margaret Cale, Alex Jackson, Tom Urie, Phil Coppola, John Bell, Kyle Fitzpatrick, Eileen Nicholas, Michael Shaw, Lauren Lamb, Devon Lamb, Nebli Basani, Edyta Szewczyk, Fiori Miari, Christopher Mullen, Hamish Haggerty, Daniel Jackson, Svetlana Yancheva, Emil Bonev, Gregor Selkirk, Ben Bradley

    OBSAH

    Na počátku byla příležitost... a pak přišla zrada. Uplynulo dvacet let. Mnohé se změnilo, ale stejně tak zůstalo mnohé při starém. Mark Renton (Ewan McGregor) se vrací na jediné místo, které mu kdy bylo domovem. Čekají tu na něj: Spud (Ewen Bremner), Sick Boy (Jonny Lee Miller) a Begbie (Robert Carlyle). Očekávají ho i další staří známí: smutek, ztráta, radost, pomsta, nenávist, přátelství, láska, touha, strach, výčitky, heroin, sebedestrukce a smrtelné nebezpečí, ti všichni stojí ve frontě, aby ho uvítali a společně to všichni naplno rozjeli.

    SCREEN



    TRAILER






    Hlavní
    Formát : Matroska
    Format version : Version 4
    Velikost souboru : 32,1 GiB
    Duration : 1 h 57 min
    Overall bit rate mode : Variable
    Celkový BitRate : 39,1 Mb/s
    Encoded date : UTC 2021-07-19 13:37:24
    Použitý software : mkvmerge v31.0.0 ('Dolores In A Shoestand') 64-bit
    Enkódoval : libebml v1.3.6 + libmatroska v1.4.9

    Video
    ID : 1
    Formát : HEVC
    Formát/Info : High Efficiency Video Coding
    Format profile : Main 10@L5.1@High
    HDR format : SMPTE ST 2086, HDR10 compatible
    Codec ID : V_MPEGH/ISO/HEVC
    Duration : 1 h 57 min
    Bit rate : 32,7 Mb/s
    Šířka : 3 840pixely
    Výška : 2 076pixely
    Poměr stran : 1,85:1
    Frame rate mode : Constant
    Frame rate : 23,976 (24000/1001) FPS
    Color space : YUV
    Chroma subsampling : 4:2:0 (Type 2)
    Bit depth : 10 bits
    Bits/(Pixel*Frame) : 0.171
    Stream size : 26,8 GiB (84%)
    Enkódoval : x265 2.5+27-0e168bdeb48b:[Windows][GCC 6.2.1][64 bit] 10bit

    Default : Ano
    Forced : Ne
    Color range : Limited
    Color primaries : BT.2020
    Transfer characteristics : PQ
    Matrix coefficients : BT.2020 non-constant
    Mastering display color primaries : Display P3
    Mastering display luminance : min: 0.0050 cd/m2, max: 4000 cd/m2
    Maximum Content Light Level : 1376 cd/m2
    Maximum Frame-Average Light Level : 731 cd/m2

    Audio #1
    ID : 2
    Formát : MLP FBA 16-ch
    Formát/Info : Meridian Lossless Packing FBA with 16-channel presentation
    Commercial name : Dolby TrueHD with Dolby Atmos
    Codec ID : A_TRUEHD
    Duration : 1 h 57 min
    Bit rate mode : Variable
    Bit rate : 4 459 kb/s
    Maximum bit rate : 7 764 kb/s
    Kanál(y) : 8 kanály
    Channel layout : L R C LFE Ls Rs Lb Rb
    Sampling rate : 48,0 kHz
    Frame rate : 1 200,000 FPS (40 SPF)
    Compression mode : Lossless
    Stream size : 3,66 GiB (11%)
    Jazyk : English
    Default : Ne
    Forced : Ne
    Number of dynamic objects : 11
    Bed channel count : 1 kanál
    Bed channel configuration : LFE

    Audio #2
    ID : 3
    Formát : AC-3
    Formát/Info : Audio Coding 3
    Commercial name : Dolby Digital
    Codec ID : A_AC3
    Duration : 1 h 57 min
    Bit rate mode : Constant
    Bit rate : 640 kb/s
    Kanál(y) : 6 kanály
    Channel layout : L R C LFE Ls Rs
    Sampling rate : 48,0 kHz
    Frame rate : 31,250 FPS (1536 SPF)
    Compression mode : Lossy
    Stream size : 537 MiB (2%)
    Jazyk : English
    Service kind : Complete Main
    Default : Ne
    Forced : Ne

    Audio #3
    ID : 4
    Formát : AC-3
    Formát/Info : Audio Coding 3
    Commercial name : Dolby Digital
    Codec ID : A_AC3
    Duration : 1 h 57 min
    Bit rate mode : Constant
    Bit rate : 640 kb/s
    Kanál(y) : 6 kanály
    Channel layout : L R C LFE Ls Rs
    Sampling rate : 48,0 kHz
    Frame rate : 31,250 FPS (1536 SPF)
    Compression mode : Lossy
    Stream size : 537 MiB (2%)
    Jazyk : Czech
    Service kind : Complete Main
    Default : Ano
    Forced : Ano

    Audio #4
    ID : 5
    Formát : AC-3
    Formát/Info : Audio Coding 3
    Commercial name : Dolby Digital
    Codec ID : A_AC3
    Duration : 1 h 57 min
    Bit rate mode : Constant
    Bit rate : 640 kb/s
    Kanál(y) : 6 kanály
    Channel layout : L R C LFE Ls Rs
    Sampling rate : 48,0 kHz
    Frame rate : 31,250 FPS (1536 SPF)
    Compression mode : Lossy
    Stream size : 537 MiB (2%)
    Jazyk : English
    Service kind : Complete Main
    Default : Ne
    Forced : Ne

    Text #1
    ID : 6
    Formát : UTF-8
    Codec ID : S_TEXT/UTF8
    Codec ID/Info : UTF-8 Plain Text
    Duration : 1 h 43 min
    Bit rate : 1 b/s
    Count of elements : 48
    Stream size : 1,33 KiB (0%)
    Jazyk : Czech
    Default : Ano
    Forced : Ano

    Text #2
    ID : 7
    Formát : UTF-8
    Codec ID : S_TEXT/UTF8
    Codec ID/Info : UTF-8 Plain Text
    Duration : 1 h 54 min
    Bit rate : 49 b/s
    Count of elements : 1295
    Stream size : 41,9 KiB (0%)
    Jazyk : Czech
    Default : Ne
    Forced : Ne

    Text #3
    ID : 8
    Formát : ASS
    Codec ID : S_TEXT/ASS
    Codec ID/Info : Advanced Sub Station Alpha
    Duration : 1 h 43 min
    Bit rate : 3 b/s
    Count of elements : 48
    Compression mode : Lossless
    Stream size : 2,30 KiB (0%)
    Jazyk : Czech
    Default : Ne
    Forced : Ano

    Text #4
    ID : 9
    Formát : ASS
    Codec ID : S_TEXT/ASS
    Codec ID/Info : Advanced Sub Station Alpha
    Duration : 1 h 54 min
    Bit rate : 83 b/s
    Count of elements : 1295
    Compression mode : Lossless
    Stream size : 69,9 KiB (0%)
    Jazyk : Czech
    Default : Ne
    Forced : Ne

    Menu #1
    00:00:00.000 : en:00:00:00.000
    00:08:03.274 : en:00:08:03.274
    00:14:26.824 : en:00:14:26.824
    00:20:20.553 : en:00:20:20.553
    00:27:35.487 : en:00:27:35.487
    00:36:22.222 : en:00:36:22.222
    00:44:13.192 : en:00:44:13.192
    00:52:33.567 : en:00:52:33.567
    00:57:30.113 : en:00:57:30.113
    01:03:28.179 : en:01:03:28.179
    01:09:31.751 : en:01:09:31.751
    01:15:48.753 : en:01:15:48.753
    01:22:57.681 : en:01:22:57.681
    01:31:03.333 : en:01:31:03.333
    01:37:40.313 : en:01:37:40.313
    01:45:56.559 : en:01:45:56.559

    Menu #2
    00:00:00.000 : en:00:00:00.000
    00:08:03.274 : en:00:08:03.274
    00:14:26.574 : en:00:14:26.574
    00:20:20.553 : en:00:20:20.553
    00:27:35.237 : en:00:27:35.237
    00:36:22.138 : en:00:36:22.138
    00:44:13.192 : en:00:44:13.192
    00:52:33.359 : en:00:52:33.359
    00:57:29.821 : en:00:57:29.821
    01:03:28.179 : en:01:03:28.179
    01:09:31.751 : en:01:09:31.751
    01:15:48.753 : en:01:15:48.753
    01:22:57.306 : en:01:22:57.306
    01:31:03.333 : en:01:31:03.333
    01:37:39.979 : en:01:37:39.979
    01:45:56.559 : en:01:45:56.559







    VDAKA ZA BODY a SEEDUJTE




    Upozornenie:
    Ziadny zo zobrazených súborov sa nenachádza na tomto serveri. Server slúzi len k síreniu vlastnorucne vytvorených aplikácií, videí, hudby ai. Autori stránok nenesú ziadnu zodpovednost za zverejnené odkazy, komentáre a obsah súborov. Vsetky komentáre, odkazy, súbory ktoré by svojou povahou mohli byt v rozpore zo zákonmi sem vkladáte na vlastnú zodpovednost. Autori stránok si vyhradzujú právo cenzúry odkazov, komentárov príp. súborov, ktoré by svojou povahou mohli byt v rozpore zo zákonmi a dobrými mravmi. Dodrzujte pravidlá!


    No comments...


    Back

    Na serveru se nenalézají zádne soubory. Za odkazy jsou výhradně zodpovědní uzivatelé a návstěvníci tohoto trackeru. Administrátor není zodpovědný za pridaný obsah ani za skody zpusobené uzivateli. Rozsirovat stránku nebo její obsah bez souhlasu ownera je zakázano. Nesmíte pouzívat tuto webovou stránku pro distribuovaní nebo download zádného materiálu pokud nemáte povolení od príslusného vlastníka práv. Uzivatelé jsou zodpovědní za dodrzování těchto pravidel a podmínek. Owner má právo kdykoliv změnit pravidla tohoto trackeru.

    [ Script trval: 0.019 sec. ] - [ GZIP: enabled ]
    Je zhruba 15:54

    TOPlist