Tvoj účet nieje VIP.
Preto sú tvoje funkcie a možnosti značne obmedzené.
Pre aktiváciu VIP klikni sem.

Taboo Relations 5 DiSC1 XXX DVDRip x264 | SkTorrent.eu

Cz-SkTorrent open Tracker, na volné zdielanie súborov. Pridajte sa k nasej komunite a získajte pristup k tisícom torrentov.

  • vysoká rýchlost
  • úplne zdarma
  • prevazne Slovenska a Ceska scena
  • ste tu s nami uz 5 rokov - Dakujeme
  • Vitaj Guest (Login) Ako stahovat
    torrenty?
    Torrenty:
    v1 textová
    v2 obrázková
    v3 online filmy
    Ako sa stat
    Uploaderom
    Online
    Filmy
    Forum
    Pravidlá
    BitTorrent
    klient
    Meno: Heslo:
    Zaregistrovat
    Po zaregistrovaní mozte volne stahovat
    Zabudol som heslo

    Torrent's details
    Taboo Relations 5 DiSC1 XXX DVDRip x264 Názov:Taboo Relations 5 DiSC1 XXX DVDRip x264 Hodnocení: Stiahnut
    Pozriet Online
    Kategória:xXx Velikost:1.2 GB BitTorrent klient
    Pridaný: Súbory:
    Skontrolován:2020-06-28 Peerov:4 (Seed: 4, Leech: 0)
    Zaner: Uploader:Uvidis, az ked budes
    VIP
    Kúp nám Pivo 1,10€

    Kúp nám Pivo
    Podporte nas na Facebooku !
    Pridaj do zalozky
    Pridaj do zalozky





    Popis Taboo.Relations.5.DiSC1.XXX.DVDRip.x264-BTRA


    Dĺžka : 2 hod  52 min
    Formát : MP4, MPEG-4 Video File
    Kategória : XXX 18+









    Formát                                   : MPEG-4
    Profil formátu                           : Base Media
    Označenie kodeku                         : isom (isom/iso2/avc1/mp41)
    Veľkosť súboru                           : 1,24 GiB
    Trvanie                                  : 2 h 52 min
    Celkový dátový tok                       : 1 032 kb/s
    Názov filmu                              : RARBG - Taboo.Relations.5.DiSC1.XXX.DVDRip.x264-BTRA
    Použitý software                         : Lavf57.83.100
    Komentár                                 : RARBG - Taboo.Relations.5.DiSC1.XXX.DVDRip.x264-BTRA

    Video
    ID                                       : 1
    Formát                                   : AVC
    Formát/Info                              : Advanced Video Codec
    Profil formátu                           : High@L3.1
    Nastavenia formátu                       : CABAC / 5 Ref Frames
    Format settings, CABAC                   : Áno
    Format settings, Reference frames        : 5snímok
    Označenie kodeku                         : avc1
    Označenie kodeku/Info                    : Advanced Video Coding
    Trvanie                                  : 2 h 52 min
    Dátový tok                               : 896 kb/s
    Šírka                                    : 720 pixelov
    Výška                                    : 406 pixelov
    Pomer strán                              : 16:9
    Režim frekvencie snímok                  : Konštantný
    Frekvencia snímok                        : 23,976 (24000/1001) snímok/sek.
    Color space                              : YUV
    Chroma subsampling                       : 4:2:0
    Bit depth                                : 8 bitov
    Scan type                                : Progresívne
    Bitov/(Bod*Snímka)                       : 0.128
    Stream size                              : 1,08 GiB (87%)
    Zakódoval                                : x264 core 160 r3000 33f9e14
    Nastavenie kodéru                        : cabac=1 / ref=5 / deblock=1:0:0 / analyse=0x3:0x113 / me=hex / subme=8 / psy=1 / psy_rd=1.00:0.00 / mixed_ref=1 / me_range=16 / chroma_me=1 / trellis=2 / 8x8dct=1 / cqm=0 / deadzone=21,11 / fast_pskip=0 / chroma_qp_offset=-2 / threads=13 / lookahead_threads=2 / sliced_threads=0 / nr=0 / decimate=1 / interlaced=0 / bluray_compat=0 / constrained_intra=0 / bframes=3 / b_pyramid=2 / b_adapt=1 / b_bias=0 / direct=3 / weightb=1 / open_gop=0 / weightp=2 / keyint=240 / keyint_min=23 / scenecut=40 / intra_refresh=0 / rc_lookahead=50 / rc=crf / mbtree=1 / crf=20.0 / qcomp=0.60 / qpmin=0 / qpmax=69 / qpstep=4 / ip_ratio=1.40 / aq=1:1.00
    Codec configuration box                  : avcC

    Audio
    ID                                       : 2
    Formát                                   : AAC LC
    Formát/Info                              : Advanced Audio Codec Low Complexity
    Označenie kodeku                         : mp4a-40-2
    Trvanie                                  : 2 h 52 min
    Režim dátového toku                      : Konštantný dátový tok
    Dátový tok                               : 132 kb/s
    Kanál(y)                                 : 2 kanály
    Channel layout                           : L R
    Sampling rate                            : 48,0 kHz
    Frekvencia snímok                        : 46,875 snímok/sek. (1024 SPF)
    Compression mode                         : Lossy
    Stream size                              : 160 MiB (13%)
    Default                                  : Áno
    Alternate group                          : 1

    IMDB No IMDB ID been added..
    Screenshot










    + Pridaj vlastnu verziu tohto torrentu +


    Upozornenie:
    Ziadny zo zobrazených súborov sa nenachádza na tomto serveri. Server slúzi len k síreniu vlastnorucne vytvorených aplikácií, videí, hudby ai. Autori stránok nenesú ziadnu zodpovednost za zverejnené odkazy, komentáre a obsah súborov. Vsetky komentáre, odkazy, súbory ktoré by svojou povahou mohli byt v rozpore zo zákonmi sem vkladáte na vlastnú zodpovednost. Autori stránok si vyhradzujú právo cenzúry odkazov, komentárov príp. súborov, ktoré by svojou povahou mohli byt v rozpore zo zákonmi a dobrými mravmi. Dodrzujte pravidlá!


    No comments...


    Back

    Na serveru se nenalézají zádne soubory. Za odkazy jsou výhradně zodpovědní uzivatelé a návstěvníci tohoto trackeru. Administrátor není zodpovědný za pridaný obsah ani za skody zpusobené uzivateli. Rozsirovat stránku nebo její obsah bez souhlasu ownera je zakázano. Nesmíte pouzívat tuto webovou stránku pro distribuovaní nebo download zádného materiálu pokud nemáte povolení od príslusného vlastníka práv. Uzivatelé jsou zodpovědní za dodrzování těchto pravidel a podmínek. Owner má právo kdykoliv změnit pravidla tohoto trackeru.

    [ Script trval: 0.026 sec. ] - [ GZIP: enabled ]
    BtiTracker (1.4.8) by Btiteam
    Je zhruba 10:22

    TOPlist