Tvoj účet nieje VIP.
Preto sú tvoje funkcie a možnosti značne obmedzené.
Pre aktiváciu VIP klikni sem.

Tak fajn (2012)(SK) = CSFD 16% | SkTorrent.eu

Cz-SkTorrent open Tracker, na volné zdielanie súborov. Pridajte sa k nasej komunite a získajte pristup k tisícom torrentov.

  • vysoká rýchlost
  • úplne zdarma
  • prevazne Slovenska a Ceska scena
  • ste tu s nami uz 5 rokov - Dakujeme
  • Vitaj Guest (Login) Ako stahovat
    torrenty?
    Torrenty:
    v1 textová
    v2 obrázková
    Ako sa stat
    Uploaderom
    Online
    Filmy
    Forum
    Pravidlá
    BitTorrent
    klient
    Meno: Heslo:
    Zaregistrovat
    Po zaregistrovaní mozte volne stahovat
    Zabudol som heslo

    Tak fajn (2012)(SK) = CSFD 16% Názov:Tak fajn (2012)(SK) = CSFD 16% Hodnocení: Stiahnut
    Pozriet Online
    Kategória:Filmy CZ/SK dabing Velikost:1.3 GB BitTorrent klient
    Pridaný: Súbory:
    Skontrolován:2014-01-14 Peerov:0 (Seed: 0, Leech: 0)
    Zaner:Komedie,Muzikal,Romanticky Uploader:Uvidis, az ked budes
    VIP
    Kúp nám Pivo 1,10€

    Kúp nám Pivo
    Pridaj do zalozky
    Pridaj do zalozky




    Jazyk: slovensky
    Titulky: Ne.
    Rok vydání: 2012
    Délka: 90 minut
    Žánr: Komedia / Muzikál / Romantický
    Odkaz: http://www.csfd.cz/film/316810-tak-fajn/

    Obrázek:

    MediaInfo: General
    Complete name                            : Z:\1 Cz Barevne filmy-256 GB\tak_fajn_2012.avi
    Format                                   : AVI
    Format/Info                              : Audio Video Interleave
    File size                                : 1.31 GiB
    Duration                                 : 1h 32mn
    Overall bit rate                         : 2 037 Kbps
    Movie name                               : tak_fajn_2012_censored_ac3.sk.5.1
    Writing application                      : Lavf52.33.0
    Original source form/Name                : Downloads

    Video
    ID                                       : 0
    Format                                   : MPEG-4 Visual
    Format profile                           : Advanced Simple@L5
    Format settings, BVOP                    : 2
    Format settings, QPel                    : No
    Format settings, GMC                     : No warppoints
    Format settings, Matrix                  : Default (H.263)
    Muxing mode                              : Packed bitstream
    Codec ID                                 : XVID
    Codec ID/Hint                            : XviD
    Duration                                 : 1h 31mn
    Bit rate                                 : 1 581 Kbps
    Width                                    : 720 pixels
    Height                                   : 344 pixels
    Display aspect ratio                     : 2.093
    Frame rate                               : 29.970 fps
    Color space                              : YUV
    Chroma subsampling                       : 4:2:0
    Bit depth                                : 8 bits
    Scan type                                : Progressive
    Compression mode                         : Lossy
    Bits/(Pixel*Frame)                       : 0.213
    Stream size                              : 1.02 GiB (77%)
    Writing library                          : XviD 1.2.1 (UTC 2008-12-04)

    Audio
    ID                                       : 1
    Format                                   : AC-3
    Format/Info                              : Audio Coding 3
    Mode extension                           : CM (complete main)
    Format settings, Endianness              : Big
    Codec ID                                 : 2000
    Duration                                 : 1h 32mn
    Bit rate mode                            : Constant
    Bit rate                                 : 448 Kbps
    Channel(s)                               : 6 channels
    Channel positions                        : Front: L C R, Side: L R, LFE
    Sampling rate                            : 48.0 KHz
    Bit depth                                : 16 bits
    Compression mode                         : Lossy
    Stream size                              : 295 MiB (22%)
    Alignment                                : Aligned on interleaves
    Interleave, duration                     : 32 ms (0.96 video frame)
    Interleave, preload duration             : 32 ms


    Popis:
    Tak Fajn je komedie o nepodařené dovolené ve třech v Chorvatsku. Milan se rozhodne požádat svojí přítelkyni Beatu o ruku právě během romantické dovolené u moře. Na tu s nimi nakonec jako křen jede i věčný party živel Miki, který se rozhodne jim romantický výlet a zásnuby zorganizovat. Věci se mu ale pravidelně vymykají z rukou a nic nedopadne tak, jak mělo. Povede se nakonec alespoň žádost o ruku, nebo bude dovolená u moře úplná katastrofa? Atmosféru letní komedie umocňují scenérie Jadranských pláží, záběry plné slunce a hudební hity.







    trexik,

    + Pridaj vlastnu verziu tohto torrentu +


    Upozornenie:
    Ziadny zo zobrazených súborov sa nenachádza na tomto serveri. Server slúzi len k síreniu vlastnorucne vytvorených aplikácií, videí, hudby ai. Autori stránok nenesú ziadnu zodpovednost za zverejnené odkazy, komentáre a obsah súborov. Vsetky komentáre, odkazy, súbory ktoré by svojou povahou mohli byt v rozpore zo zákonmi sem vkladáte na vlastnú zodpovednost. Autori stránok si vyhradzujú právo cenzúry odkazov, komentárov príp. súborov, ktoré by svojou povahou mohli byt v rozpore zo zákonmi a dobrými mravmi. Dodrzujte pravidlá!





    -3
    Anklo
    Ratio 0.02

    Clen

    14/01/2014 22.45.19
    takto to nestiahnem ani do vianoc

    1
    mimco25
    Ratio 0.4

    Clen

    14/01/2014 18.39.15
    ze by to nekdo zacal seedovat pohodine mam 1.8%
    Uploader
    14/01/2014 17.56.04
    slovenská komedia.Mám pocit, že se screenem nebude všechno v pořádku, ale to se vyvrbí.


    Back

    Na serveru se nenalézají zádne soubory. Za odkazy jsou výhradně zodpovědní uzivatelé a návstěvníci tohoto trackeru. Administrátor není zodpovědný za pridaný obsah ani za skody zpusobené uzivateli. Nesmíte pouzívat tuto webovou stránku pro distribuovaní nebo download zádného materiálu pokud nemáte povolení od príslusného vlastníka práv. Uzivatelé jsou zodpovědní za dodrzování těchto pravidel a podmínek. Owner má právo kdykoliv změnit pravidla tohoto trackeru.

    [ Script trval: 0.020 sec. ] - [ GZIP: enabled ]
    Je zhruba 16:47
    memcache

    TOPlist