Tvoj účet nieje VIP.
Preto sú tvoje funkcie a možnosti značne obmedzené.
Pre aktiváciu VIP klikni sem.

Telefonni budka / Phone Booth (2002)(BluRay)(1080p)(CZ/EN) = CSFD 84% | SkTorrent.eu

Cz-SkTorrent open Tracker, na volné zdielanie súborov. Pridajte sa k nasej komunite a získajte pristup k tisícom torrentov.

  • vysoká rýchlost
  • úplne zdarma
  • prevazne Slovenska a Ceska scena
  • ste tu s nami uz 5 rokov - Dakujeme
  • Vitaj Guest (Login) Ako stahovat
    torrenty?
    Torrenty:
    v1 textová
    v2 obrázková
    v3 online filmy
    Ako sa stat
    Uploaderom
    Online
    Filmy
    Forum
    Pravidlá
    BitTorrent
    klient
    Meno: Heslo:
    Zaregistrovat
    Po zaregistrovaní mozte volne stahovat
    Zabudol som heslo

    Torrent's details
    Telefonni budka / Phone Booth (2002)(BluRay)(1080p)(CZ/EN) = CSFD 84% Názov:Telefonni budka / Phone Booth (2002)(BluRay)(1080p)(CZ/EN) = CSFD 84% Hodnocení: Stiahnut
    Pozriet Online
    Kategória:Filmy CZ/SK dabing Velikost:1.6 GB BitTorrent klient
    Pridaný: Súbory:
    Skontrolován:2021-12-15 Peerov:3 (Seed: 3, Leech: 0)
    Zaner:Mysteriozni,Psychologicky,Thriller Uploader:Uvidis, az ked budes
    VIP
    Kúp nám Pivo 1,10€

    Kúp nám Pivo
    Podporte nas na Facebooku !
    Pridaj do zalozky
    Pridaj do zalozky








    Telefonni budka / Phone Booth (2002)
    BluRay rip CZ a púvodní dabing + CZ/EN tit

                   










    Thriller / Mysteriózní / Psychologický
    USA, 2002, 81 min (Alternativní 78 min)
    Režie: Joel Schumacher
    Scénář: Larry Cohen
    Kamera: Matthew Libatique
    Hudba: Harry Gregson-Williams
    Hrají: (Colin Farrell - ), Kiefer Sutherland, Forest Whitaker, Radha Mitchell, Katie Holmes, Paula Jai Parker, Tia Texada, John Enos III, Richard T. Jones




    V západním Manhattanu na 53. ulici stojí snad poslední uzavřená telefonní budka v New Yorku. Právě z ní den co den ve stejnou dobu telefonuje arogantní mediální manažer Stuart Shepard začínající herečce Pam. Poslední den před tím, než mají budku zbourat, se však stanou dvě zdánlivě nevinné věci, které samolibému muži převrátí život vzhůru nohama. Nejprve na dvířka telefonní budky zaklepe doručovatel s pizzou, kterou si Stu neobjednal, a vzápětí zazvoní telefon. Shephard udělá tu chybu, že automaticky zvedne sluchátko a tím zpečetí svůj osud. Kdosi neznámý, který však o něm ví překvapivě mnoho, mu začne vyhrožovat. Přesvědčí Sheparda, že pokud nebude poslouchat jeho příkazy, odstřelí ho snajpr, jenž ho má na mušce a hraje si s ním jako kočka s myší. Komorní thriller režíroval Joel Schumacher, v hlavní roli exceluje (Colin Farrell - )








    Formát                                   : Matroska
    Format version                           : Version 4
    Velikost souboru                         : 1,63 GiB
    Duration                                 : 1 h 21 min
    Celkový BitRate                          : 2 885 kb/s
    Název filmu                              : Telefonní budka - Phone Booth (2002)(BluRay)(MAX)(FullHD)(1080p)(CZ-EN) PHDTeam
    Encoded date                             : UTC 2021-12-15 17:30:38
    Použitý software                         : mkvmerge v63.0.0 ('Everything') 64-bit
    Enkódoval                                : libebml v1.4.2 + libmatroska v1.6.4

    Video
    ID                                       : 1
    Formát                                   : AVC
    Formát/Info                              : Advanced Video Codec
    Format profile                           : High@L4.1
    Format settings                          : CABAC / 4 Ref Frames
    Format settings, CABAC                   : Ano
    Format settings, Reference frames        : 4 frames
    Codec ID                                 : V_MPEG4/ISO/AVC
    Duration                                 : 1 h 21 min
    Bit rate                                 : 2 500 kb/s
    Šířka                                    : 1 920pixely
    Výška                                    : 814pixely
    Poměr stran                              : 2,35:1
    Frame rate mode                          : Constant
    Frame rate                               : 23,976 (24000/1001) FPS
    Original frame rate                      : 23,976 (23976/1000) FPS
    Color space                              : YUV
    Chroma subsampling                       : 4:2:0
    Bit depth                                : 8 bits
    Scan type                                : Progressive
    Bits/(Pixel*Frame)                       : 0.067
    Stream size                              : 1,41 GiB (87%)
    Titul                                    : Telefonní budka - Phone Booth (2002)(BluRay)(MAX)(FullHD)(1080p)(CZ-EN) PHDTeam
    Enkódoval                                : x264 core 152 r2851M ba24899
    Nastavení enkoderu                       : cabac=1 / ref=4 / deblock=1:-1:-1 / analyse=0x3:0x113 / me=umh / subme=9 / psy=1 / psy_rd=1.00:0.15 / mixed_ref=1 / me_range=24 / chroma_me=1 / trellis=2 / 8x8dct=1 / cqm=0 / deadzone=21,11 / fast_pskip=1 / chroma_qp_offset=-3 / threads=32 / lookahead_threads=4 / sliced_threads=0 / nr=0 / decimate=1 / interlaced=0 / bluray_compat=0 / constrained_intra=0 / bframes=3 / b_pyramid=2 / b_adapt=2 / b_bias=0 / direct=3 / weightb=1 / open_gop=0 / weightp=2 / keyint=250 / keyint_min=25 / scenecut=40 / intra_refresh=0 / rc_lookahead=50 / rc=2pass / mbtree=1 / bitrate=2500 / ratetol=1.0 / qcomp=0.60 / qpmin=0 / qpmax=69 / qpstep=4 / cplxblur=20.0 / qblur=0.5 / vbv_maxrate=31250 / vbv_bufsize=31250 / nal_hrd=none / filler=0 / ip_ratio=1.40 / aq=3:1.00
    Default                                  : Ano
    Forced                                   : Ne

    Audio #1
    ID                                       : 2
    Formát                                   : AC-3
    Formát/Info                              : Audio Coding 3
    Commercial name                          : Dolby Digital
    Format settings                          : Dolby Surround
    Codec ID                                 : A_AC3
    Duration                                 : 1 h 21 min
    Bit rate mode                            : Constant
    Bit rate                                 : 192 kb/s
    Kanál(y)                                 : 2 kanály
    Channel layout                           : L R
    Sampling rate                            : 48,0 kHz
    Frame rate                               : 31,250 FPS (1536 SPF)
    Compression mode                         : Lossy
    Stream size                              : 111 MiB (7%)
    Titul                                    : CZ AC3 DD 2.0 BR
    Jazyk                                    : Czech
    Service kind                             : Complete Main
    Default                                  : Ano
    Forced                                   : Ne

    Audio #2
    ID                                       : 3
    Formát                                   : AC-3
    Formát/Info                              : Audio Coding 3
    Commercial name                          : Dolby Digital
    Codec ID                                 : A_AC3
    Duration                                 : 1 h 21 min
    Bit rate mode                            : Constant
    Bit rate                                 : 192 kb/s
    Kanál(y)                                 : 2 kanály
    Channel layout                           : L R
    Sampling rate                            : 48,0 kHz
    Frame rate                               : 31,250 FPS (1536 SPF)
    Compression mode                         : Lossy
    Stream size                              : 111 MiB (7%)
    Titul                                    : EN AC3 DD 2.0 BR
    Jazyk                                    : English
    Service kind                             : Complete Main
    Default                                  : Ne
    Forced                                   : Ne

    Text #1
    ID                                       : 4
    Formát                                   : UTF-8
    Codec ID                                 : S_TEXT/UTF8
    Codec ID/Info                            : UTF-8 Plain Text
    Duration                                 : 1 h 14 min
    Bit rate                                 : 88 b/s
    Count of elements                        : 1251
    Stream size                              : 48,0 KiB (0%)
    Titul                                    : czech
    Jazyk                                    : Czech
    Default                                  : Ano
    Forced                                   : Ne

    Text #2
    ID                                       : 5
    Formát                                   : UTF-8
    Codec ID                                 : S_TEXT/UTF8
    Codec ID/Info                            : UTF-8 Plain Text
    Duration                                 : 1 h 12 min
    Bit rate                                 : 114 b/s
    Count of elements                        : 1261
    Stream size                              : 60,9 KiB (0%)
    Titul                                    : english
    Jazyk                                    : English
    Default                                  : Ne
    Forced                                   : Ne



















    MartinZetek, Divoch1312, LBS81, tibotibo, tibotibo, Joseph82, karellx, vanajirka, margharethe, Adnay, Megos007, FrantišekFiala, bilk, bloodylife, Žaneta251,

    + Pridaj vlastnu verziu tohto torrentu +


    Upozornenie:
    Ziadny zo zobrazených súborov sa nenachádza na tomto serveri. Server slúzi len k síreniu vlastnorucne vytvorených aplikácií, videí, hudby ai. Autori stránok nenesú ziadnu zodpovednost za zverejnené odkazy, komentáre a obsah súborov. Vsetky komentáre, odkazy, súbory ktoré by svojou povahou mohli byt v rozpore zo zákonmi sem vkladáte na vlastnú zodpovednost. Autori stránok si vyhradzujú právo cenzúry odkazov, komentárov príp. súborov, ktoré by svojou povahou mohli byt v rozpore zo zákonmi a dobrými mravmi. Dodrzujte pravidlá!


    No comments...


    Back

    Na serveru se nenalézají zádne soubory. Za odkazy jsou výhradně zodpovědní uzivatelé a návstěvníci tohoto trackeru. Administrátor není zodpovědný za pridaný obsah ani za skody zpusobené uzivateli. Rozsirovat stránku nebo její obsah bez souhlasu ownera je zakázano. Nesmíte pouzívat tuto webovou stránku pro distribuovaní nebo download zádného materiálu pokud nemáte povolení od príslusného vlastníka práv. Uzivatelé jsou zodpovědní za dodrzování těchto pravidel a podmínek. Owner má právo kdykoliv změnit pravidla tohoto trackeru.

    [ Script trval: 0.028 sec. ] - [ GZIP: enabled ]
    Je zhruba 04:35
    sql

    TOPlist