Tvoj účet nieje VIP.
Preto sú tvoje funkcie a možnosti značne obmedzené.
Pre aktiváciu VIP klikni sem.

Temny rytir povstal / The Dark Knight Rises (CZ)(2012) = CSFD 87% | SkTorrent.eu

Cz-SkTorrent open Tracker, na volné zdielanie súborov. Pridajte sa k nasej komunite a získajte pristup k tisícom torrentov.

  • vysoká rýchlost
  • úplne zdarma
  • prevazne Slovenska a Ceska scena
  • ste tu s nami uz 5 rokov - Dakujeme
  • Vitaj Guest (Login) Ako stahovat
    torrenty?
    Torrenty:
    v1 textová
    v2 obrázková
    v3 online filmy
    Ako sa stat
    Uploaderom
    Online
    Filmy
    Forum
    Pravidlá
    BitTorrent
    klient
    Meno: Heslo:
    Zaregistrovat
    Po zaregistrovaní mozte volne stahovat
    Zabudol som heslo

    Torrent's details
    Temny rytir povstal / The Dark Knight Rises (CZ)(2012) = CSFD 87% Názov:Temny rytir povstal / The Dark Knight Rises (CZ)(2012) = CSFD 87% Hodnocení: Stiahnut
    Pozriet Online
    Kategória:Filmy CZ/SK dabing Velikost:2.2 GB BitTorrent klient
    Pridaný: Súbory:
    Skontrolován:2014-02-08 Peerov:4 (Seed: 4, Leech: 0)
    Zaner:Akcni,Drama,Krimi,Thriller Uploader:Uvidis, az ked budes
    VIP
    Kúp nám Pivo 1,10€

    Kúp nám Pivo
    Podporte nas na Facebooku !
    Pridaj do zalozky
    Pridaj do zalozky






    Jazyk: 5.1 Cz
    Titulky: Ne
    Odkaz na CSFD: http://www.csfd.cz/film/252669-temny-rytir-povstal
    http://www.csfd.cz/film/252669-temny-rytir-povstal/
    Rok vydání: USA / Velká Británie, 2012
    Délka: 164 min
    Žánr: Akční / Krimi / Drama / Thriller



    Je tomu již osm let, co se Batman vytratil do noci, čímž se tak z hrdiny změnil v uprchlíka. Tím, že za něj padla vina za smrt Harveyho Denta, obětoval temný rytíř všechno pro to, co společně s komisařem Gordonem považoval za vyšší dobro. A na čas tato lež skutečně zabírala, když byla kriminální aktivita v Gothamu rozdrcena silou Dentova odkazu.
    Všechno se ale mění s příchodem prohnané zlodějky a jejích tajemných zájmů. Avšak ještě daleko nebezpečnější je nástup Banea, maskovaného teroristy, jehož nelítostný plán proti Gothamu vyžene Bruce z jeho dobrovolného exilu. Avšak ani pokud si znovu nasadí svou masku a temnou kápi, nemusí jeho síly proti Baneovi stačit.





    MediainfoFormat                                   : AVI
    Format/Info: Audio Video Interleave
    Format profile: OpenDML
    File size: 2.18 GiB
    Duration: 2h 44mn
    Overall bit rate: 1 895 Kbps
    Writing application: VirtualDubMod 1.5.10.2 (build 2540/release)
    Writing library: VirtualDubMod build 2540/release

    Video
    ID: 0
    Format: MPEG-4 Visual
    Format profile: Advanced Simple@L5
    Format settings, BVOP: 3
    Format settings, QPel: No
    Format settings, GMC: No warppoints
    Format settings, Matrix: Default (MPEG)
    Codec ID: XVID
    Codec ID/Hint: XviD
    Duration: 2h 44mn
    Bit rate: 1 435 Kbps
    Width: 712 pixels
    Height: 400 pixels
    Display aspect ratio: 16:9
    Frame rate: 23.976 fps
    Color space: YUV
    Chroma subsampling: 4:2:0
    Bit depth: 8 bits
    Scan type: Progressive
    Compression mode: Lossy
    Bits/(Pixel*Frame): 0.210
    Stream size: 1.65 GiB (76%)
    Writing library: XviD 64

    Audio
    ID: 1
    Format: AC-3
    Format/Info: Audio Coding 3
    Mode extension: CM (complete main)
    Format settings, Endianness: Big
    Codec ID: 2000
    Duration: 2h 44mn
    Bit rate mode: Constant
    Bit rate: 448 Kbps
    Channel(s): 6 channels
    Channel positions: Front: L C R, Side: L R, LFE
    Sampling rate: 48.0 KHz
    Bit depth: 16 bits
    Compression mode: Lossy
    Stream size: 527 MiB (24%)
    Alignment: Split accross interleaves
    Interleave, duration: 42 ms (1.00 video frame)
    Interleave, preload duration: 500 ms










    milanuska, Jaty_CZ, Madzi, festerr1, Daniela74, martincot, gorka,

    + Pridaj vlastnu verziu tohto torrentu +


    Upozornenie:
    Ziadny zo zobrazených súborov sa nenachádza na tomto serveri. Server slúzi len k síreniu vlastnorucne vytvorených aplikácií, videí, hudby ai. Autori stránok nenesú ziadnu zodpovednost za zverejnené odkazy, komentáre a obsah súborov. Vsetky komentáre, odkazy, súbory ktoré by svojou povahou mohli byt v rozpore zo zákonmi sem vkladáte na vlastnú zodpovednost. Autori stránok si vyhradzujú právo cenzúry odkazov, komentárov príp. súborov, ktoré by svojou povahou mohli byt v rozpore zo zákonmi a dobrými mravmi. Dodrzujte pravidlá!





    0
    Grand_Admiral_Thrawn
    Ratio 0.63

    Clen

    02/04/2020 15.44.35
    seed plz guyz

    3
    fagannes
    Ratio 0.18

    Clen

    24/01/2017 16.51.24
    prosim vas moze to niekto seednut ?


    Back

    Na serveru se nenalézají zádne soubory. Za odkazy jsou výhradně zodpovědní uzivatelé a návstěvníci tohoto trackeru. Administrátor není zodpovědný za pridaný obsah ani za skody zpusobené uzivateli. Rozsirovat stránku nebo její obsah bez souhlasu ownera je zakázano. Nesmíte pouzívat tuto webovou stránku pro distribuovaní nebo download zádného materiálu pokud nemáte povolení od príslusného vlastníka práv. Uzivatelé jsou zodpovědní za dodrzování těchto pravidel a podmínek. Owner má právo kdykoliv změnit pravidla tohoto trackeru.

    [ Script trval: 0.026 sec. ] - [ GZIP: enabled ]
    Je zhruba 12:38
    sql

    TOPlist