Tvoj účet nieje VIP.
Preto sú tvoje funkcie a možnosti značne obmedzené.
Pre aktiváciu VIP klikni sem.

Tenkrat v Hollywoodu (CZ,ENG,UKR) (2019) [1080p] = CSFD 77% | SkTorrent.eu

Cz-SkTorrent open Tracker, na volné zdielanie súborov. Pridajte sa k nasej komunite a získajte pristup k tisícom torrentov.

  • vysoká rýchlost
  • úplne zdarma
  • prevazne Slovenska a Ceska scena
  • ste tu s nami uz 5 rokov - Dakujeme
  • Vitaj Guest (Login) Ako stahovat
    torrenty?
    Torrenty:
    v1 textová
    v2 obrázková
    v3 online filmy
    Ako sa stat
    Uploaderom
    Online
    Filmy
    Forum
    Pravidlá
    BitTorrent
    klient
    Meno: Heslo:
    Zaregistrovat
    Po zaregistrovaní mozte volne stahovat
    Zabudol som heslo

    Torrent's details
    Tenkrat v Hollywoodu (CZ,ENG,UKR) (2019) [1080p] = CSFD 77% Názov:Tenkrat v Hollywoodu (CZ,ENG,UKR) (2019) [1080p] = CSFD 77% Hodnocení: Stiahnut
    Pozriet Online
    Kategória:HD Filmy Velikost:14.9 GB BitTorrent klient
    Pridaný: Súbory:
    Skontrolován:2021-08-01 Peerov:5 (Seed: 5, Leech: 0)
    Zaner:Drama,Komedie Uploader:Uvidis, az ked budes
    VIP
    Kúp nám Pivo 1,10€

    Kúp nám Pivo
    Podporte nas na Facebooku !
    Pridaj do zalozky
    Pridaj do zalozky











    Režie:     Quentin Tarantino
    Scénář:  Quentim Tarantino
    Kamera: Robert Richardson
    Hrají:     Leonardo DiCaprio,
                       Brad Pit a další

    Jazyk:        CZ/ ENG/ UKR
    Titulky:   eng/cz přiloženy
    Rok vydání:  2019








    Píše se únor 1969 a rozkošná dobová reklama na černobílý western uvede rázem do světa, ve kterém se hrdina televizních kovbojek čili Leonardo DiCaprio provázený svým kaskadérem neboli Bradem Pittem zkouší prodrat na stříbrné plátno. Protože, jak mu vysvětlí Al Pacino v roli hereckého agenta nad zábavnými ukázkami děl s naivistickým kouzlem starých časů, nechá-li se v pilotních dílech seriálů coby zlosyn stále jen kopat do zadku, bude mít brzy po kariéře...
    více zde:




      General
         Unique ID : 111174458846822323881283274522522019165 (0x53A36C03E4CDDB4A6F2EAFB481DBE55D)
         Complete name : Tenkrát v Hollywoodu) 1080p CZ dabing.mkv
         Format : Matroska
         Format version : Version 4 / Version 2
         File size : 14.9 GiB
         Duration : 2 h 41 min
         Overall bit rate : 13.2 Mb/s
         Movie name : ??????? ?… ????????? / Once Upon a Time... in Hollywood
         Encoded date : UTC 2020-01-14 18:51:27
         Writing application : mkvmerge v35.0.0 ('All The Love In The World') 64-bit
         Writing library : libebml v1.3.9 + libmatroska v1.5.2
      Video #1
         ID : 1
         Format : AVC
         Format/Info : Advanced Video Codec
         Format profile : High@L4.1
         Format settings : CABAC / 5 Ref Frames
         Format settings, CABAC : Yes
         Format settings, ReFrames : 5 frames
         Codec ID : V_MPEG4/ISO/AVC
         Duration : 2 h 41 min
         Bit rate : 12.0 Mb/s
         Width : 1 920 pixels
         Height : 800 pixels
         Display aspect ratio : 2.40:1
         Frame rate mode : Constant
         Frame rate : 59.940 (60000/1001) FPS
         Color space : YUV
         Chroma subsampling : 4:2:0
         Bit depth : 8 bits
         Scan type : Progressive
         Bits/(Pixel*Frame) : 0.130
         Stream size : 13.5 GiB (91%)
         Title : ???????
         Writing library : x264 core 146 r2538 121396c
         Encoding settings : cabac=1 / ref=5 / deblock=1:-2:-2 / analyse=0x3:0x113 / me=umh / subme=9 / psy=1 / psy_rd=1.00:0.25 / mixed_ref=1 / me_range=32 / chroma_me=1 / trellis=2 / 8x8dct=1 / cqm=0 / deadzone=6,6 / fast_pskip=1 / chroma_qp_offset=-4 / threads=12 / lookahead_threads=2 / sliced_threads=0 / nr=0 / decimate=0 / interlaced=0 / bluray_compat=0 / constrained_intra=0 / bframes=8 / b_pyramid=2 / b_adapt=2 / b_bias=0 / direct=3 / weightb=1 / open_gop=0 / weightp=2 / keyint=599 / keyint_min=60 / scenecut=40 / intra_refresh=0 / rc_lookahead=60 / rc=2pass / mbtree=1 / bitrate=12000 / ratetol=1.0 / qcomp=0.80 / qpmin=0 / qpmax=69 / qpstep=4 / cplxblur=20.0 / qblur=0.5 / vbv_maxrate=50000 / vbv_bufsize=65000 / nal_hrd=none / filler=0 / ip_ratio=1.10 / aq=1:0.50
         Language : English
         Default : Yes
         Forced : No
      Audio #2
         ID : 2
         Format : AC-3
         Format/Info : Audio Coding 3
         Codec ID : A_AC3
         Duration : 2 h 41 min
         Bit rate mode : Constant
         Bit rate : 384 kb/s
         Channel(s) : 6 channels
         Channel positions : Front: L C R, Side: L R, LFE
         Sampling rate : 48.0 kHz
         Frame rate : 31.250 FPS (1536 SPF)
         Bit depth : 16 bits
         Compression mode : Lossy
         Stream size : 444 MiB (3%)
         Title : CZE
         Language : Czech
         Service kind : Complete Main
         Default : Yes
         Forced : No
      Audio #4
         ID : 4
         Format : AC-3
         Format/Info : Audio Coding 3
         Codec ID : A_AC3
         Duration : 2 h 41 min
         Bit rate mode : Constant
         Bit rate : 160 kb/s
         Channel(s) : 2 channels
         Channel positions : Front: L R
         Sampling rate : 48.0 kHz
         Frame rate : 31.250 FPS (1536 SPF)
         Bit depth : 16 bits
         Compression mode : Lossy
         Stream size : 185 MiB (1%)
         Title : ?????? (iTunes)
         Language : Ukrainian
         Service kind : Complete Main
         Default : No
         Forced : No
      Audio #5
         ID : 5
         Format : AC-3
         Format/Info : Audio Coding 3
         Codec ID : A_AC3
         Duration : 2 h 41 min
         Bit rate mode : Constant
         Bit rate : 640 kb/s
         Channel(s) : 6 channels
         Channel positions : Front: L C R, Side: L R, LFE
         Sampling rate : 48.0 kHz
         Frame rate : 31.250 FPS (1536 SPF)
         Bit depth : 16 bits
         Compression mode : Lossy
         Stream size : 739 MiB (5%)
         Title : Original
         Language : English
         Service kind : Complete Main
         Default : No
         Forced : No
      Text #3
         ID : 3
         Format : UTF-8
         Codec ID : S_TEXT/UTF8
         Codec ID/Info : UTF-8 Plain Text
         Duration : 2 h 36 min
         Bit rate : 0 b/s
         Count of elements : 21
         Stream size : 728 Bytes (0%)
         Title : forced
         Language : Czech
         Default : Yes
         Forced : Yes
      Text #6
         ID : 6
         Format : UTF-8
         Codec ID : S_TEXT/UTF8
         Codec ID/Info : UTF-8 Plain Text
         Duration : 2 h 40 min
         Bit rate : 61 b/s
         Count of elements : 2543
         Stream size : 72.8 KiB (0%)
         Title : SDH
         Language : English
         Default : No
         Forced : No



    screen






    {od nejstaršího)

    Amplitube program

    Ion Fury hra

    Astragon Water Park Tycoon hra

    Viva Pinata hra

    Swords and Sandals PC hra

    Swords and Sandals APK hra

    Banished hra

    Sound Forge 12 program

    Mozilla Thunderbird program

    Disney Universe hra

    Disneyland Adventures hra

    The Grinch 3D film 3D

    Dos Games - Mega Pack hra

    Heretic HD hra

    Hexen HD hra

    Hexen 2 HD hra

    Duke Nukem 3D HD hra

    Lidské tělo dokument

    Rhodan - Myth of the Illochim hra

    King's Bounty: Armored Princess hra

    Easy Gif Animator Pro 6 program

    T-RackS 4.7.1 CS program

    Crashday hra

    Warcraft 3 hra

    Jméno růže film

    Alice in Chains - Dirt hudba

    Samplitude pro X program

    Minecraft Win10 edition hra

    Oddworld: New 'n' Tasty APK hra

    Oddworld: New 'n' Tasty PC hra

    Minecraft APK hra

    Spotify APK program

    Syberia 1+2 hra

    Divine Divinity hra

    Sacred hra

    Heroes of MM 4 hra

    Alba - A wildlife adv. hra

    Minecraft Dungeon hra

    Malý krámek hrůz film

    EZdrummer 2 program

    Garfield Kart hra

    Game Dev Tycoon APK hra

    Strach a hnus v Las Vegas film

    Život pod vodou film

    Záměna film

    Toy Story 3 hra

    Quake 4 hra

    Clown Core hudba

    Rebelka hra

    VirtualTablet program




           


    123



    ONLINE

    CZ dabing






    CZ titulky









    Lucifeeer.666, Threadt, Ram,

    + Pridaj vlastnu verziu tohto torrentu +


    Upozornenie:
    Ziadny zo zobrazených súborov sa nenachádza na tomto serveri. Server slúzi len k síreniu vlastnorucne vytvorených aplikácií, videí, hudby ai. Autori stránok nenesú ziadnu zodpovednost za zverejnené odkazy, komentáre a obsah súborov. Vsetky komentáre, odkazy, súbory ktoré by svojou povahou mohli byt v rozpore zo zákonmi sem vkladáte na vlastnú zodpovednost. Autori stránok si vyhradzujú právo cenzúry odkazov, komentárov príp. súborov, ktoré by svojou povahou mohli byt v rozpore zo zákonmi a dobrými mravmi. Dodrzujte pravidlá!


    No comments...


    Back

    Na serveru se nenalézají zádne soubory. Za odkazy jsou výhradně zodpovědní uzivatelé a návstěvníci tohoto trackeru. Administrátor není zodpovědný za pridaný obsah ani za skody zpusobené uzivateli. Rozsirovat stránku nebo její obsah bez souhlasu ownera je zakázano. Nesmíte pouzívat tuto webovou stránku pro distribuovaní nebo download zádného materiálu pokud nemáte povolení od príslusného vlastníka práv. Uzivatelé jsou zodpovědní za dodrzování těchto pravidel a podmínek. Owner má právo kdykoliv změnit pravidla tohoto trackeru.

    [ Script trval: 0.043 sec. ] - [ GZIP: enabled ]
    Je zhruba 00:29

    TOPlist