Tvoj účet nieje VIP.
Preto sú tvoje funkcie a možnosti značne obmedzené.
Pre aktiváciu VIP klikni sem.

The Imperfects / Nedokonali (S01)(1080p)(WebDl)(CZ+Multi 5 lang)(MultiSUB) = CSFD 53% | SkTorrent.eu

Cz-SkTorrent open Tracker, na volné zdielanie súborov. Pridajte sa k nasej komunite a získajte pristup k tisícom torrentov.

  • vysoká rýchlost
  • úplne zdarma
  • prevazne Slovenska a Ceska scena
  • ste tu s nami uz 5 rokov - Dakujeme
  • Vitaj Guest (Login) Ako stahovat
    torrenty?
    Torrenty:
    v1 textová
    v2 obrázková
    Ako sa stat
    Uploaderom
    Online
    Filmy
    Forum
    Pravidlá
    BitTorrent
    klient
    Meno: Heslo:
    Zaregistrovat
    Po zaregistrovaní mozte volne stahovat
    Zabudol som heslo

    The Imperfects / Nedokonali (S01)(1080p)(WebDl)(CZ+Multi 5 lang)(MultiSUB) = CSFD 53% Názov:The Imperfects / Nedokonali (S01)(1080p)(WebDl)(CZ+Multi 5 lang)(MultiSUB) = CSFD 53% Hodnocení:N/A Stiahnut
    Pozriet Online
    Kategória:Seriál Velikost:6.1 GB BitTorrent klient
    Pridaný: Súbory:
    Skontrolován:2022-11-20 Peerov:4 (Seed: 4, Leech: 0)
    Zaner:Dobrodruzny,Drama,Fantasy,Mysteriozni Uploader:Uvidis, az ked budes
    VIP
    Kúp nám Pivo 1,10€

    Kúp nám Pivo
    Pridaj do zalozky
    Pridaj do zalozky





    [center]






    Movie Name: The Imperfects (S01)
    IMDb Rating: 6.4/10

    Quality: 1080p (WebDL)
    Language: AAC 2.0 - English , German , Czech , Hungarian , Polish
    Subtitles: Multi
    Director: Mark Chow, Jovanka Vuckovic, Mathias Herndl
    Writers: Dennis Heaton, Shelley Eriksen
    Genres: Adventure | Action | Drama |


    After an experimental gene therapy turns them into monsters, three twenty-somethings band together to hunt down the scientist responsible and force him to make them human again.





    [/center]
    Format                                   : MPEG-4
    Format profile                           : Base Media
    Codec ID                                 : isom (isom/iso2/avc1/mp41)
    File size                                : 685 MiB
    Duration                                 : 43 min 49 s
    Overall bit rate mode                    : Variable
    Overall bit rate                         : 2 187 kb/s
    Collection                               : Nedokonalí
    Season                                   : 1
    Track name                               : Sarkovovy děti
    Description                              : Tři lidi, kteří podstoupí náročný experiment, začnou vykazovat podivné symptomy, a poľádají proto o pomoc genetika Alexe Sarkova.
    Writing application                      : Lavf58.76.100
    Cover                                    : Yes
    Part_ID                                  : 1

    Video
    ID                                       : 1
    Format                                   : AVC
    Format/Info                              : Advanced Video Codec
    Format profile                           : High@L4
    Format settings                          : CABAC / 4 Ref Frames
    Format settings, CABAC                   : Yes
    Format settings, Reference frames        : 4 frames
    Codec ID                                 : avc1
    Codec ID/Info                            : Advanced Video Coding
    Duration                                 : 43 min 48 s
    Bit rate mode                            : Variable
    Bit rate                                 : 1 535 kb/s
    Maximum bit rate                         : 20.0 Mb/s
    Width                                    : 1 920 pixels
    Height                                   : 1 080 pixels
    Display aspect ratio                     : 16:9
    Frame rate mode                          : Constant
    Frame rate                               : 23.976 (24000/1001) FPS
    Color space                              : YUV
    Chroma subsampling                       : 4:2:0
    Bit depth                                : 8 bits
    Scan type                                : Progressive
    Bits/(Pixel*Frame)                       : 0.031
    Stream size                              : 481 MiB (70%)

    Audio #1
    ID                                       : 3
    Format                                   : AAC LC SBR
    Format/Info                              : Advanced Audio Codec Low Complexity with Spectral Band Replication
    Commercial name                          : HE-AAC
    Format settings                          : Explicit
    Codec ID                                 : mp4a-40-2
    Duration                                 : 43 min 49 s
    Bit rate mode                            : Constant
    Bit rate                                 : 128 kb/s
    Channel(s)                               : 2 channels
    Channel layout                           : L R
    Sampling rate                            : 48.0 kHz
    Frame rate                               : 23.438 FPS (2048 SPF)
    Compression mode                         : Lossy
    Stream size                              : 40.1 MiB (6%)
    Title                                    : čeątina
    Language                                 : Czech
    Default                                  : Yes
    Alternate group                          : 2

    Audio #2
    ID                                       : 4
    Format                                   : AAC LC SBR
    Format/Info                              : Advanced Audio Codec Low Complexity with Spectral Band Replication
    Commercial name                          : HE-AAC
    Format settings                          : Explicit
    Codec ID                                 : mp4a-40-2
    Duration                                 : 43 min 49 s
    Bit rate mode                            : Constant
    Bit rate                                 : 128 kb/s
    Channel(s)                               : 2 channels
    Channel layout                           : L R
    Sampling rate                            : 48.0 kHz
    Frame rate                               : 23.438 FPS (2048 SPF)
    Compression mode                         : Lossy
    Stream size                              : 40.1 MiB (6%)
    Title                                    : němčina
    Language                                 : German
    Default                                  : No
    Alternate group                          : 3

    Audio #3
    ID                                       : 5
    Format                                   : AAC LC SBR
    Format/Info                              : Advanced Audio Codec Low Complexity with Spectral Band Replication
    Commercial name                          : HE-AAC
    Format settings                          : Explicit
    Codec ID                                 : mp4a-40-2
    Duration                                 : 43 min 49 s
    Bit rate mode                            : Constant
    Bit rate                                 : 128 kb/s
    Channel(s)                               : 2 channels
    Channel layout                           : L R
    Sampling rate                            : 48.0 kHz
    Frame rate                               : 23.438 FPS (2048 SPF)
    Compression mode                         : Lossy
    Stream size                              : 40.1 MiB (6%)
    Title                                    : angličtina [Originál]
    Language                                 : English
    Default                                  : Yes
    Alternate group                          : 4

    Audio #4
    ID                                       : 6
    Format                                   : AAC LC SBR
    Format/Info                              : Advanced Audio Codec Low Complexity with Spectral Band Replication
    Commercial name                          : HE-AAC
    Format settings                          : Explicit
    Codec ID                                 : mp4a-40-2
    Duration                                 : 43 min 49 s
    Bit rate mode                            : Constant
    Bit rate                                 : 128 kb/s
    Channel(s)                               : 2 channels
    Channel layout                           : L R
    Sampling rate                            : 48.0 kHz
    Frame rate                               : 23.438 FPS (2048 SPF)
    Compression mode                         : Lossy
    Stream size                              : 40.1 MiB (6%)
    Title                                    : maďarątina
    Language                                 : Hungarian
    Default                                  : Yes
    Alternate group                          : 5

    Audio #5
    ID                                       : 7
    Format                                   : AAC LC SBR
    Format/Info                              : Advanced Audio Codec Low Complexity with Spectral Band Replication
    Commercial name                          : HE-AAC
    Format settings                          : Explicit
    Codec ID                                 : mp4a-40-2
    Duration                                 : 43 min 49 s
    Bit rate mode                            : Constant
    Bit rate                                 : 128 kb/s
    Channel(s)                               : 2 channels
    Channel layout                           : L R
    Sampling rate                            : 48.0 kHz
    Frame rate                               : 23.438 FPS (2048 SPF)
    Compression mode                         : Lossy
    Stream size                              : 40.1 MiB (6%)
    Title                                    : polątina
    Language                                 : Polish
    Default                                  : Yes
    Alternate group                          : 6

    Text #1
    ID                                       : 8
    Format                                   : Timed Text
    Muxing mode                              : sbtl
    Codec ID                                 : tx3g
    Duration                                 : 42 min 24 s
    Bit rate mode                            : Variable
    Bit rate                                 : 83 b/s
    Stream size                              : 25.8 KiB (0%)
    Title                                    : čeątina
    Language                                 : Czech
    Default                                  : No
    Forced                                   : No
    Alternate group                          : 7

    Text #2
    ID                                       : 9
    Format                                   : Timed Text
    Muxing mode                              : sbtl
    Codec ID                                 : tx3g
    Duration                                 : 42 min 23 s
    Bit rate mode                            : Variable
    Bit rate                                 : 1 b/s
    Stream size                              : 255 Bytes (0%)
    Title                                    : Czech [ForcedNarrative]
    Language                                 : Czech
    Default                                  : Yes
    Forced                                   : No
    Alternate group                          : 8

    Text #3
    ID                                       : 10
    Format                                   : Timed Text
    Muxing mode                              : sbtl
    Codec ID                                 : tx3g
    Duration                                 : 42 min 24 s
    Bit rate mode                            : Variable
    Bit rate                                 : 79 b/s
    Stream size                              : 24.6 KiB (0%)
    Title                                    : němčina
    Language                                 : German
    Default                                  : No
    Forced                                   : No
    Alternate group                          : 9

    Text #4
    ID                                       : 11
    Format                                   : Timed Text
    Muxing mode                              : sbtl
    Codec ID                                 : tx3g
    Duration                                 : 42 min 23 s
    Bit rate mode                            : Variable
    Bit rate                                 : 1 b/s
    Stream size                              : 231 Bytes (0%)
    Title                                    : German [ForcedNarrative]
    Language                                 : German
    Default                                  : No
    Forced                                   : No
    Alternate group                          : 10

    Text #5
    ID                                       : 12
    Format                                   : Timed Text
    Muxing mode                              : sbtl
    Codec ID                                 : tx3g
    Duration                                 : 42 min 23 s
    Bit rate mode                            : Variable
    Bit rate                                 : 92 b/s
    Stream size                              : 28.7 KiB (0%)
    Title                                    : angličtina [CC]
    Language                                 : English
    Default                                  : No
    Forced                                   : No
    Alternate group                          : 11

    Text #6
    ID                                       : 13
    Format                                   : Timed Text
    Muxing mode                              : sbtl
    Codec ID                                 : tx3g
    Duration                                 : 42 min 24 s
    Bit rate mode                            : Variable
    Bit rate                                 : 75 b/s
    Stream size                              : 23.4 KiB (0%)
    Title                                    : maďarątina
    Language                                 : Hungarian
    Default                                  : No
    Forced                                   : No
    Alternate group                          : 12

    Text #7
    ID                                       : 14
    Format                                   : Timed Text
    Muxing mode                              : sbtl
    Codec ID                                 : tx3g
    Duration                                 : 42 min 23 s
    Bit rate mode                            : Variable
    Bit rate                                 : 7 b/s
    Stream size                              : 2.03 KiB (0%)
    Title                                    : Hungarian [ForcedNarrative]
    Language                                 : Hungarian
    Default                                  : No
    Forced                                   : No
    Alternate group                          : 13

    Text #8
    ID                                       : 15
    Format                                   : Timed Text
    Muxing mode                              : sbtl
    Codec ID                                 : tx3g
    Duration                                 : 42 min 23 s
    Bit rate mode                            : Variable
    Bit rate                                 : 1 b/s
    Stream size                              : 215 Bytes (0%)
    Title                                    : Polish [ForcedNarrative]
    Language                                 : Polish
    Default                                  : No
    Forced                                   : No
    Alternate group                          : 14

    Text #9
    ID                                       : 16
    Format                                   : Timed Text
    Muxing mode                              : sbtl
    Codec ID                                 : tx3g
    Duration                                 : 42 min 24 s
    Bit rate mode                            : Variable
    Bit rate                                 : 77 b/s
    Stream size                              : 24.1 KiB (0%)
    Title                                    : polątina
    Language                                 : Polish
    Default                                  : No
    Forced                                   : No
    Alternate group                          : 15

    Text #10
    ID                                       : 17
    Format                                   : Timed Text
    Muxing mode                              : sbtl
    Codec ID                                 : tx3g
    Duration                                 : 42 min 24 s
    Bit rate mode                            : Variable
    Bit rate                                 : 120 b/s
    Stream size                              : 37.3 KiB (0%)
    Title                                    : ukrajinątina
    Language                                 : Ukrainian
    Default                                  : No
    Forced                                   : No
    Alternate group                          : 16










    pohee,

    + Pridaj vlastnu verziu tohto torrentu +


    Upozornenie:
    Ziadny zo zobrazených súborov sa nenachádza na tomto serveri. Server slúzi len k síreniu vlastnorucne vytvorených aplikácií, videí, hudby ai. Autori stránok nenesú ziadnu zodpovednost za zverejnené odkazy, komentáre a obsah súborov. Vsetky komentáre, odkazy, súbory ktoré by svojou povahou mohli byt v rozpore zo zákonmi sem vkladáte na vlastnú zodpovednost. Autori stránok si vyhradzujú právo cenzúry odkazov, komentárov príp. súborov, ktoré by svojou povahou mohli byt v rozpore zo zákonmi a dobrými mravmi. Dodrzujte pravidlá!


    No comments...


    Back

    Na serveru se nenalézají zádne soubory. Za odkazy jsou výhradně zodpovědní uzivatelé a návstěvníci tohoto trackeru. Administrátor není zodpovědný za pridaný obsah ani za skody zpusobené uzivateli. Nesmíte pouzívat tuto webovou stránku pro distribuovaní nebo download zádného materiálu pokud nemáte povolení od príslusného vlastníka práv. Uzivatelé jsou zodpovědní za dodrzování těchto pravidel a podmínek. Owner má právo kdykoliv změnit pravidla tohoto trackeru.

    [ Script trval: 0.029 sec. ] - [ GZIP: enabled ]
    Je zhruba 21:20
    memcache

    TOPlist