Tvoj účet nieje VIP.
Preto sú tvoje funkcie a možnosti značne obmedzené.
Pre aktiváciu VIP klikni sem.

The Irregulars / Prilezitostni detektivove z Baker Street (S01)(1080p)(AVC)(WebDl)(Multi 4 lang)(CZ tit+MultiSUB) = CSFD 45% | SkTorrent.eu

Cz-SkTorrent open Tracker, na volné zdielanie súborov. Pridajte sa k nasej komunite a získajte pristup k tisícom torrentov.

  • vysoká rýchlost
  • úplne zdarma
  • prevazne Slovenska a Ceska scena
  • ste tu s nami uz 5 rokov - Dakujeme
  • Vitaj Guest (Login) Ako stahovat
    torrenty?
    Torrenty:
    v1 textová
    v2 obrázková
    Ako sa stat
    Uploaderom
    Online
    Filmy
    Forum
    Pravidlá
    BitTorrent
    klient
    Meno: Heslo:
    Zaregistrovat
    Po zaregistrovaní mozte volne stahovat
    Zabudol som heslo

    The Irregulars / Prilezitostni detektivove z Baker Street (S01)(1080p)(AVC)(WebDl)(Multi 4 lang)(CZ tit+MultiSUB) = CSFD 45% Názov:The Irregulars / Prilezitostni detektivove z Baker Street (S01)(1080p)(AVC)(WebDl)(Multi 4 lang)(CZ tit+MultiSUB) = CSFD 45% Hodnocení:N/A Stiahnut
    Pozriet Online
    Kategória:Seriál Velikost:11.9 GB BitTorrent klient
    Pridaný: Súbory:
    Skontrolován:2022-11-20 Peerov:7 (Seed: 7, Leech: 0)
    Zaner:Drama,Krimi,Mysteriozni Uploader:Uvidis, az ked budes
    VIP
    Kúp nám Pivo 1,10€

    Kúp nám Pivo
    Pridaj do zalozky
    Pridaj do zalozky





    [center]






    Movie Name: The Irregulars (S01)
    IMDb Rating: 6.0/10

    Quality: 1080p (WebDL)
    Language: AAC 2.0 - English , German , Hungarian , Polish
    Subtitles: Multi
    Director: Joss Agnew, Johnny Allan, Weronika Tofilska
    Writers: Sarah Simmonds, Tom Bidwell
    Genres: Crime | Drama | Fantasy |


    Set in Victorian London, the series follows a gang of troubled street teens who are manipulated into solving crimes for the sinister Doctor Watson and his mysterious business partner, the elusive Sherlock Holmes.





    [/center]

    Format                                   : MPEG-4
    Format profile                           : Base Media
    Codec ID                                 : isom (isom/iso2/avc1/mp41)
    File size                                : 1.75 GiB
    Duration                                 : 58 min 18 s
    Overall bit rate mode                    : Variable
    Overall bit rate                         : 4 307 kb/s
    Collection                               : Příleľitostní detektivové z Baker Street
    Season                                   : 1
    Track name                               : Kapitola první: Nevlídná tvář Londýna
    Description                              : Jessiiny noční můry jsou pořád děsivějąí. Bea přijímá nabídku dr. Watsona a začíná pro něj pracovat na případu čtyř unesených nemluvňat – s nečekaně vzneąeným pomocníkem.
    Writing application                      : Lavf58.76.100
    Cover                                    : Yes
    Part_ID                                  : 1

    Video
    ID                                       : 1
    Format                                   : AVC
    Format/Info                              : Advanced Video Codec
    Format profile                           : High@L4
    Format settings                          : CABAC / 4 Ref Frames
    Format settings, CABAC                   : Yes
    Format settings, Reference frames        : 4 frames
    Codec ID                                 : avc1
    Codec ID/Info                            : Advanced Video Coding
    Duration                                 : 58 min 17 s
    Bit rate mode                            : Variable
    Bit rate                                 : 3 786 kb/s
    Maximum bit rate                         : 20.0 Mb/s
    Width                                    : 1 920 pixels
    Height                                   : 1 080 pixels
    Display aspect ratio                     : 16:9
    Frame rate mode                          : Constant
    Frame rate                               : 25.000 FPS
    Color space                              : YUV
    Chroma subsampling                       : 4:2:0
    Bit depth                                : 8 bits
    Scan type                                : Progressive
    Bits/(Pixel*Frame)                       : 0.073
    Stream size                              : 1.54 GiB (88%)

    Audio #1
    ID                                       : 3
    Format                                   : AAC LC SBR
    Format/Info                              : Advanced Audio Codec Low Complexity with Spectral Band Replication
    Commercial name                          : HE-AAC
    Format settings                          : Explicit
    Codec ID                                 : mp4a-40-2
    Duration                                 : 58 min 18 s
    Bit rate mode                            : Constant
    Bit rate                                 : 128 kb/s
    Channel(s)                               : 2 channels
    Channel layout                           : L R
    Sampling rate                            : 48.0 kHz
    Frame rate                               : 23.438 FPS (2048 SPF)
    Compression mode                         : Lossy
    Stream size                              : 53.4 MiB (3%)
    Title                                    : němčina
    Language                                 : German
    Default                                  : Yes
    Alternate group                          : 2

    Audio #2
    ID                                       : 4
    Format                                   : AAC LC SBR
    Format/Info                              : Advanced Audio Codec Low Complexity with Spectral Band Replication
    Commercial name                          : HE-AAC
    Format settings                          : Explicit
    Codec ID                                 : mp4a-40-2
    Duration                                 : 58 min 18 s
    Bit rate mode                            : Constant
    Bit rate                                 : 128 kb/s
    Channel(s)                               : 2 channels
    Channel layout                           : L R
    Sampling rate                            : 48.0 kHz
    Frame rate                               : 23.438 FPS (2048 SPF)
    Compression mode                         : Lossy
    Stream size                              : 53.4 MiB (3%)
    Title                                    : angličtina [Originál]
    Language                                 : English
    Default                                  : Yes
    Alternate group                          : 3

    Audio #3
    ID                                       : 5
    Format                                   : AAC LC SBR
    Format/Info                              : Advanced Audio Codec Low Complexity with Spectral Band Replication
    Commercial name                          : HE-AAC
    Format settings                          : Explicit
    Codec ID                                 : mp4a-40-2
    Duration                                 : 58 min 18 s
    Bit rate mode                            : Constant
    Bit rate                                 : 128 kb/s
    Channel(s)                               : 2 channels
    Channel layout                           : L R
    Sampling rate                            : 48.0 kHz
    Frame rate                               : 23.438 FPS (2048 SPF)
    Compression mode                         : Lossy
    Stream size                              : 53.4 MiB (3%)
    Title                                    : maďarątina
    Language                                 : Hungarian
    Default                                  : Yes
    Alternate group                          : 4

    Audio #4
    ID                                       : 6
    Format                                   : AAC LC SBR
    Format/Info                              : Advanced Audio Codec Low Complexity with Spectral Band Replication
    Commercial name                          : HE-AAC
    Format settings                          : Explicit
    Codec ID                                 : mp4a-40-2
    Duration                                 : 58 min 18 s
    Bit rate mode                            : Constant
    Bit rate                                 : 128 kb/s
    Channel(s)                               : 2 channels
    Channel layout                           : L R
    Sampling rate                            : 48.0 kHz
    Frame rate                               : 23.438 FPS (2048 SPF)
    Compression mode                         : Lossy
    Stream size                              : 53.4 MiB (3%)
    Title                                    : polątina
    Language                                 : Polish
    Default                                  : Yes
    Alternate group                          : 5

    Text #1
    ID                                       : 7
    Format                                   : Timed Text
    Muxing mode                              : sbtl
    Codec ID                                 : tx3g
    Duration                                 : 56 min 56 s
    Bit rate mode                            : Variable
    Bit rate                                 : 49 b/s
    Stream size                              : 20.3 KiB (0%)
    Title                                    : čeątina
    Language                                 : Czech
    Default                                  : Yes
    Forced                                   : No
    Alternate group                          : 6

    Text #2
    ID                                       : 8
    Format                                   : Timed Text
    Muxing mode                              : sbtl
    Codec ID                                 : tx3g
    Duration                                 : 56 min 56 s
    Bit rate mode                            : Variable
    Bit rate                                 : 52 b/s
    Stream size                              : 21.6 KiB (0%)
    Title                                    : němčina
    Language                                 : German
    Default                                  : No
    Forced                                   : No
    Alternate group                          : 7

    Text #3
    ID                                       : 9
    Format                                   : Timed Text
    Muxing mode                              : sbtl
    Codec ID                                 : tx3g
    Duration                                 : 56 min 53 s
    Bit rate mode                            : Variable
    Bit rate                                 : 71 b/s
    Stream size                              : 29.5 KiB (0%)
    Title                                    : němčina [CC]
    Language                                 : German
    Default                                  : No
    Forced                                   : No
    Alternate group                          : 8

    Text #4
    ID                                       : 10
    Format                                   : Timed Text
    Muxing mode                              : sbtl
    Codec ID                                 : tx3g
    Duration                                 : 13 min 15 s
    Bit rate mode                            : Variable
    Bit rate                                 : 2 b/s
    Stream size                              : 177 Bytes (0%)
    Title                                    : German [ForcedNarrative]
    Language                                 : German
    Default                                  : No
    Forced                                   : No
    Alternate group                          : 9

    Text #5
    ID                                       : 11
    Format                                   : Timed Text
    Muxing mode                              : sbtl
    Codec ID                                 : tx3g
    Duration                                 : 56 min 53 s
    Bit rate mode                            : Variable
    Bit rate                                 : 64 b/s
    Stream size                              : 26.5 KiB (0%)
    Title                                    : němčina
    Language                                 : German
    Default                                  : No
    Forced                                   : No
    Alternate group                          : 10

    Text #6
    ID                                       : 12
    Format                                   : Timed Text
    Muxing mode                              : sbtl
    Codec ID                                 : tx3g
    Duration                                 : 55 min 32 s
    Bit rate mode                            : Variable
    Bit rate                                 : 68 b/s
    Stream size                              : 27.7 KiB (0%)
    Title                                    : angličtina [CC]
    Language                                 : English
    Default                                  : No
    Forced                                   : No
    Alternate group                          : 11

    Text #7
    ID                                       : 13
    Format                                   : Timed Text
    Muxing mode                              : sbtl
    Codec ID                                 : tx3g
    Duration                                 : 56 min 56 s
    Bit rate mode                            : Variable
    Bit rate                                 : 51 b/s
    Stream size                              : 21.1 KiB (0%)
    Title                                    : maďarątina
    Language                                 : Hungarian
    Default                                  : No
    Forced                                   : No
    Alternate group                          : 12

    Text #8
    ID                                       : 14
    Format                                   : Timed Text
    Muxing mode                              : sbtl
    Codec ID                                 : tx3g
    Duration                                 : 56 min 56 s
    Bit rate mode                            : Variable
    Bit rate                                 : 1 b/s
    Stream size                              : 233 Bytes (0%)
    Title                                    : Hungarian [ForcedNarrative]
    Language                                 : Hungarian
    Default                                  : No
    Forced                                   : No
    Alternate group                          : 13

    Text #9
    ID                                       : 15
    Format                                   : Timed Text
    Muxing mode                              : sbtl
    Codec ID                                 : tx3g
    Duration                                 : 13 min 15 s
    Bit rate mode                            : Variable
    Bit rate                                 : 2 b/s
    Stream size                              : 189 Bytes (0%)
    Title                                    : Polish [ForcedNarrative]
    Language                                 : Polish
    Default                                  : No
    Forced                                   : No
    Alternate group                          : 14

    Text #10
    ID                                       : 16
    Format                                   : Timed Text
    Muxing mode                              : sbtl
    Codec ID                                 : tx3g
    Duration                                 : 56 min 56 s
    Bit rate mode                            : Variable
    Bit rate                                 : 50 b/s
    Stream size                              : 20.8 KiB (0%)
    Title                                    : polątina
    Language                                 : Polish
    Default                                  : No
    Forced                                   : No
    Alternate group                          : 15

    Text #11
    ID                                       : 17
    Format                                   : Timed Text
    Muxing mode                              : sbtl
    Codec ID                                 : tx3g
    Duration                                 : 56 min 56 s
    Bit rate mode                            : Variable
    Bit rate                                 : 83 b/s
    Stream size                              : 34.8 KiB (0%)
    Title                                    : ukrajinątina
    Language                                 : Ukrainian
    Default                                  : No
    Forced                                   : No
    Alternate group                          : 16











    + Pridaj vlastnu verziu tohto torrentu +


    Upozornenie:
    Ziadny zo zobrazených súborov sa nenachádza na tomto serveri. Server slúzi len k síreniu vlastnorucne vytvorených aplikácií, videí, hudby ai. Autori stránok nenesú ziadnu zodpovednost za zverejnené odkazy, komentáre a obsah súborov. Vsetky komentáre, odkazy, súbory ktoré by svojou povahou mohli byt v rozpore zo zákonmi sem vkladáte na vlastnú zodpovednost. Autori stránok si vyhradzujú právo cenzúry odkazov, komentárov príp. súborov, ktoré by svojou povahou mohli byt v rozpore zo zákonmi a dobrými mravmi. Dodrzujte pravidlá!


    No comments...


    Back

    Na serveru se nenalézají zádne soubory. Za odkazy jsou výhradně zodpovědní uzivatelé a návstěvníci tohoto trackeru. Administrátor není zodpovědný za pridaný obsah ani za skody zpusobené uzivateli. Nesmíte pouzívat tuto webovou stránku pro distribuovaní nebo download zádného materiálu pokud nemáte povolení od príslusného vlastníka práv. Uzivatelé jsou zodpovědní za dodrzování těchto pravidel a podmínek. Owner má právo kdykoliv změnit pravidla tohoto trackeru.

    [ Script trval: 0.091 sec. ] - [ GZIP: enabled ]
    Je zhruba 21:17
    sql

    TOPlist