Tvoj účet nieje VIP.
Preto sú tvoje funkcie a možnosti značne obmedzené.
Pre aktiváciu VIP klikni sem.

The Last Ship / Posledni lod (S01-S05)(2014-2018)(WebDl)(FHD)(1080p)(Hevc)(Multi 4 lang)(CZtit+MultiSUB) = CSFD 66% | SkTorrent.eu

Cz-SkTorrent open Tracker, na volné zdieľanie súborov. Pridajte sa k našej komunite a získajte prístup k tisícom torrentov.

  • vysoká rýchlosť
  • úplne zdarma
  • prevažne Slovenská a Česká scéna
  • ste tu s nami už 10 rokov - Ďakujeme
  • Vitaj Guest (Login) Ako stahovat
    torrenty?
    Torrenty:
    v1 textová
    v2 obrázková
    Ako sa stat
    Uploaderom
    Online
    Filmy
    Forum
    Pravidlá
    SkTSocial
    BitTorrent
    klient
    Meno: Heslo:
    Zaregistrovat
    Po zaregistrovaní mozte volne stahovat
    Zabudol som heslo

    The Last Ship / Posledni lod (S01-S05)(2014-2018)(WebDl)(FHD)(1080p)(Hevc)(Multi 4 lang)(CZtit+MultiSUB) = CSFD 66% Názov:The Last Ship / Posledni lod (S01-S05)(2014-2018)(WebDl)(FHD)(1080p)(Hevc)(Multi 4 lang)(CZtit+MultiSUB) = CSFD 66% Hodnocení:N/A Stiahnut
    Pozriet Online
    Kategória:Seriál Velikost:48.0 GB BitTorrent klient
    Pridaný: Súbory:
    Skontrolován:2022-11-26 Peerov:6 (Seed: 6, Leech: 0)
    Zaner:Akcni,Drama,Sci-Fi,Thriller Uploader:Uvidis, az ked budes
    VIP
    Kúp nám Pivo 1,10€

    Kúp nám Pivo

    Pridaj do zalozky
    Pridaj do zalozky






    [center]





    Movie Name: The Last Ship (S01-S05)(2014-2018)(Complete)
    IMDb Rating: 7.4/10

    Quality: 1080p (WebDL)
    Language: AAC 2.0 - English , Spanish, Portuguese , French
    Subtitles: Multi
    Director: Paul Holahan, Jack Bender, Peter Weller, Michael Katleman, Steven Kane, Sergio Mimica-Gezzan, Jonathan Mostow, Brad Turner, Greg Beeman, Mario Van Peebles, Olatunde Osunsanmi, Reza Tabrizi, Bobby Roth, Kenneth Fink, Tim Matheson, Nelson McCormick, Hank Steinberg, Michael Nankin, Jennifer Lynch, Mairzee Almas, Anton Cropper, Bill Roe, Lukas Ettlin, Jann Turner
    Writers: Steven Kane, Hank Steinberg
    Genres: Action | Drama | Sci-fi |


    The crew of a naval destroyer is forced to confront the reality of a new existence when a pandemic kills off most of the earth's population.




    [/center]

    Format                                   : MPEG-4
    Format profile                           : Base Media
    Codec ID                                 : isom (isom/iso2/mp41)
    File size                                : 1.11 GiB
    Duration                                 : 45 min 28 s
    Overall bit rate mode                    : Variable
    Overall bit rate                         : 3 480 kb/s
    Collection                               : The Last Ship: The Complete Series
    Season                                   : 1
    Track name                               : Phase Six
    Description                              : V pilotním díle seriálu globální virus téměř zahubí lidstvo.
    Recorded date                            : 2014
    Writing application                      : Lavf58.76.100
    Cover                                    : Yes
    Part_ID                                  : 1

    Video
    ID                                       : 1
    Format                                   : HEVC
    Format/Info                              : High Efficiency Video Coding
    Format profile                           : Main@L4@Main
    Codec ID                                 : hev1
    Codec ID/Info                            : High Efficiency Video Coding
    Duration                                 : 45 min 28 s
    Bit rate                                 : 2 949 kb/s
    Width                                    : 1 920 pixels
    Height                                   : 1 080 pixels
    Display aspect ratio                     : 16:9
    Frame rate mode                          : Constant
    Frame rate                               : 23.976 (24000/1001) FPS
    Standard                                 : NTSC
    Color space                              : YUV
    Chroma subsampling                       : 4:2:0
    Bit depth                                : 8 bits
    Bits/(Pixel*Frame)                       : 0.059
    Stream size                              : 959 MiB (85%)
    Color range                              : Limited
    Color primaries                          : BT.709
    Transfer characteristics                 : BT.709
    Matrix coefficients                      : BT.709
    Codec configuration box                  : hvcC

    Audio #1
    ID                                       : 3
    Format                                   : AAC LC
    Format/Info                              : Advanced Audio Codec Low Complexity
    Codec ID                                 : mp4a-40-2
    Duration                                 : 45 min 28 s
    Bit rate mode                            : Constant
    Bit rate                                 : 128 kb/s
    Channel(s)                               : 2 channels
    Channel layout                           : L R
    Sampling rate                            : 48.0 kHz
    Frame rate                               : 46.875 FPS (1024 SPF)
    Compression mode                         : Lossy
    Stream size                              : 41.6 MiB (4%)
    Language                                 : English
    Default                                  : Yes
    Alternate group                          : 2

    Audio #2
    ID                                       : 4
    Format                                   : AAC LC
    Format/Info                              : Advanced Audio Codec Low Complexity
    Codec ID                                 : mp4a-40-2
    Duration                                 : 45 min 28 s
    Bit rate mode                            : Constant
    Bit rate                                 : 128 kb/s
    Channel(s)                               : 2 channels
    Channel layout                           : L R
    Sampling rate                            : 48.0 kHz
    Frame rate                               : 46.875 FPS (1024 SPF)
    Compression mode                         : Lossy
    Stream size                              : 41.6 MiB (4%)
    Language                                 : Spanish
    Default                                  : Yes
    Alternate group                          : 3

    Audio #3
    ID                                       : 5
    Format                                   : AAC LC
    Format/Info                              : Advanced Audio Codec Low Complexity
    Codec ID                                 : mp4a-40-2
    Duration                                 : 45 min 28 s
    Bit rate mode                            : Constant
    Bit rate                                 : 128 kb/s
    Channel(s)                               : 2 channels
    Channel layout                           : L R
    Sampling rate                            : 48.0 kHz
    Frame rate                               : 46.875 FPS (1024 SPF)
    Compression mode                         : Lossy
    Stream size                              : 41.6 MiB (4%)
    Language                                 : French
    Default                                  : Yes
    Alternate group                          : 4

    Audio #4
    ID                                       : 6
    Format                                   : AAC LC
    Format/Info                              : Advanced Audio Codec Low Complexity
    Codec ID                                 : mp4a-40-2
    Duration                                 : 45 min 28 s
    Bit rate mode                            : Constant
    Bit rate                                 : 128 kb/s
    Channel(s)                               : 2 channels
    Channel layout                           : L R
    Sampling rate                            : 48.0 kHz
    Frame rate                               : 46.875 FPS (1024 SPF)
    Compression mode                         : Lossy
    Stream size                              : 41.6 MiB (4%)
    Language                                 : Portuguese
    Default                                  : Yes
    Alternate group                          : 5

    Text #1
    ID                                       : 7
    Format                                   : Timed Text
    Muxing mode                              : sbtl
    Codec ID                                 : tx3g
    Duration                                 : 33 min 53 s
    Bit rate mode                            : Variable
    Bit rate                                 : 1 b/s
    Frame rate                               : 0.005 FPS
    Stream size                              : 236 Bytes (0%)
    Language                                 : Portuguese
    Default                                  : No
    Forced                                   : No
    Alternate group                          : 6

    Text #2
    ID                                       : 8
    Format                                   : Timed Text
    Muxing mode                              : sbtl
    Codec ID                                 : tx3g
    Duration                                 : 45 min 20 s
    Bit rate mode                            : Variable
    Bit rate                                 : 61 b/s
    Frame rate                               : 0.411 FPS
    Stream size                              : 20.4 KiB (0%)
    Language                                 : Danish
    Default                                  : No
    Forced                                   : No
    Alternate group                          : 7

    Text #3
    ID                                       : 9
    Format                                   : Timed Text
    Muxing mode                              : sbtl
    Codec ID                                 : tx3g
    Duration                                 : 44 min 25 s
    Bit rate mode                            : Variable
    Bit rate                                 : 80 b/s
    Frame rate                               : 0.465 FPS
    Stream size                              : 26.0 KiB (0%)
    Language                                 : English
    Default                                  : No
    Forced                                   : No
    Alternate group                          : 8

    Text #4
    ID                                       : 10
    Format                                   : Timed Text
    Muxing mode                              : sbtl
    Codec ID                                 : tx3g
    Duration                                 : 45 min 16 s
    Bit rate mode                            : Variable
    Bit rate                                 : 65 b/s
    Frame rate                               : 0.427 FPS
    Stream size                              : 21.6 KiB (0%)
    Language                                 : French
    Default                                  : No
    Forced                                   : No
    Alternate group                          : 9

    Text #5
    ID                                       : 11
    Format                                   : Timed Text
    Muxing mode                              : sbtl
    Codec ID                                 : tx3g
    Duration                                 : 45 min 15 s
    Bit rate mode                            : Variable
    Bit rate                                 : 69 b/s
    Frame rate                               : 0.425 FPS
    Stream size                              : 22.8 KiB (0%)
    Language                                 : Dutch
    Default                                  : No
    Forced                                   : No
    Alternate group                          : 10

    Text #6
    ID                                       : 12
    Format                                   : Timed Text
    Muxing mode                              : sbtl
    Codec ID                                 : tx3g
    Duration                                 : 45 min 20 s
    Bit rate mode                            : Variable
    Bit rate                                 : 53 b/s
    Frame rate                               : 0.297 FPS
    Stream size                              : 17.6 KiB (0%)
    Language                                 : Norwegian Bokmal
    Default                                  : No
    Forced                                   : No
    Alternate group                          : 11

    Text #7
    ID                                       : 13
    Format                                   : Timed Text
    Muxing mode                              : sbtl
    Codec ID                                 : tx3g
    Duration                                 : 45 min 16 s
    Bit rate mode                            : Variable
    Bit rate                                 : 77 b/s
    Frame rate                               : 0.458 FPS
    Stream size                              : 25.6 KiB (0%)
    Language                                 : Portuguese
    Default                                  : No
    Forced                                   : No
    Alternate group                          : 12

    Text #8
    ID                                       : 14
    Format                                   : Timed Text
    Muxing mode                              : sbtl
    Codec ID                                 : tx3g
    Duration                                 : 45 min 20 s
    Bit rate mode                            : Variable
    Bit rate                                 : 54 b/s
    Frame rate                               : 0.299 FPS
    Stream size                              : 18.0 KiB (0%)
    Language                                 : Finnish
    Default                                  : No
    Forced                                   : No
    Alternate group                          : 13

    Text #9
    ID                                       : 15
    Format                                   : Timed Text
    Muxing mode                              : sbtl
    Codec ID                                 : tx3g
    Duration                                 : 45 min 20 s
    Bit rate mode                            : Variable
    Bit rate                                 : 54 b/s
    Frame rate                               : 0.298 FPS
    Stream size                              : 18.0 KiB (0%)
    Language                                 : Swedish
    Default                                  : No
    Forced                                   : No
    Alternate group                          : 14

    Text #10
    ID                                       : 16
    Format                                   : Timed Text
    Muxing mode                              : sbtl
    Codec ID                                 : tx3g
    Duration                                 : 45 min 14 s
    Bit rate mode                            : Variable
    Bit rate                                 : 75 b/s
    Frame rate                               : 0.458 FPS
    Stream size                              : 24.9 KiB (0%)
    Language                                 : Czech
    Default                                  : Yes
    Forced                                   : No
    Alternate group                          : 15












    Nightroad, DoktorRob, Hebled,

    + Pridaj vlastnu verziu tohto torrentu +


    Upozornenie:
    Ziadny zo zobrazených súborov sa nenachádza na tomto serveri. Server slúzi len k síreniu vlastnorucne vytvorených aplikácií, videí, hudby ai. Autori stránok nenesú ziadnu zodpovednost za zverejnené odkazy, komentáre a obsah súborov. Vsetky komentáre, odkazy, súbory ktoré by svojou povahou mohli byt v rozpore zo zákonmi sem vkladáte na vlastnú zodpovednost. Autori stránok si vyhradzujú právo cenzúry odkazov, komentárov príp. súborov, ktoré by svojou povahou mohli byt v rozpore zo zákonmi a dobrými mravmi. Dodrzujte pravidlá!


    No comments...


    Back

    Na serveru se nenalézají zádne soubory. Za odkazy jsou výhradně zodpovědní uzivatelé a návstěvníci tohoto trackeru. Administrátor není zodpovědný za pridaný obsah ani za skody zpusobené uzivateli. Nesmíte pouzívat tuto webovou stránku pro distribuovaní nebo download zádného materiálu pokud nemáte povolení od príslusného vlastníka práv. Uzivatelé jsou zodpovědní za dodrzování těchto pravidel a podmínek. Owner má právo kdykoliv změnit pravidla tohoto trackeru.

    [ Script trval: 0.119 sec. ] - [ GZIP: enabled ]
    Je zhruba 09:28
    sql

    TOPlist