Tvoj účet nieje VIP.
Preto sú tvoje funkcie a možnosti značne obmedzené.
Pre aktiváciu VIP klikni sem.

The Last of Us S01E02 - Nakažení (CZ/SK/EN)(2160p)(SDR)(HEVC-10bit)(Web-DL) = CSFD 87% | SkTorrent.eu

Cz-SkTorrent open Tracker, na volné zdieľanie súborov. Pridajte sa k našej komunite a získajte prístup k tisícom torrentov.

  • vysoká rýchlosť
  • úplne zdarma
  • prevažne Slovenská a Česká scéna
  • ste tu s nami už 10 rokov - Ďakujeme
  • Vitaj Guest (Login) Ako stahovat
    torrenty?
    Torrenty:
    v1 textová
    v2 obrázková
    Ako sa stat
    Uploaderom
    Online
    Filmy
    Forum
    Pravidlá
    SkTSocial
    BitTorrent
    klient
    Meno: Heslo:
    Zaregistrovat
    Po zaregistrovaní mozte volne stahovat
    Zabudol som heslo

    The Last of Us S01E02 - Nakažení (CZ/SK/EN)(2160p)(SDR)(HEVC-10bit)(Web-DL) = CSFD 87% Názov:The Last of Us S01E02 - Nakažení (CZ/SK/EN)(2160p)(SDR)(HEVC-10bit)(Web-DL) = CSFD 87% Hodnocení: Stiahnut
    Pozriet Online
    Kategória:Seriál - Velikost:5.5 GB BitTorrent klient
    Pridaný: Súbory:
    Skontrolován:2023-01-23 Peerov:39 (Seed: 39, Leech: 0)
    Zaner:Akcni,Dobrodruzny,Drama,Horor Uploader:Uvidis, az ked budes
    VIP
    Kúp nám Pivo 1,10€

    Kúp nám Pivo

    Pridaj do zalozky
    Pridaj do zalozky




    Video: 2160p 10bit HEVC MKV
    Audio: CZ/SK/EN (CZ/SK - 5.1 256kb/s , EN - Atmos 5.1 768kb/s)
    Titulky: CZ/SK/EN + Forced CZ/SK




    Akční / Dobrodružný / Drama / Horor / Sci-Fi / Thriller
    USA, 2023, 9 h 20 min (Minutáž: 60–80 min)


    ČSFD: https://www.csfd.cz/film/381392-the-last-of-us/1058556-nakazeni/prehled/

    Tvůrci: Neil Druckmann, Craig Mazin

    Režie: Ali Abbasi, Jeremy Webb, Neil Druckmann, Peter Hoar, Liza Johnson

    Scénář: Neil Druckmann, Craig Mazin

    Kamera: Eben Bolter, Nadim Carlsen, Xenija Sereda

    Hudba: Gustavo Santaolalla, David Fleming

    Hrají: Bella Ramsey, Pedro Pascal, Gabriel Luna, Merle Dandridge, Jeffrey Pierce, Nico Parker, Murray Bartlett, Con O'Neill, Anna Torv, Ashley Johnson

    Produkce: Cecil O'Connor, Greg Spence

    Střih: Mark Hartzell, Timothy A. Good

    Zvuk: Michael J. Benavente, Kevin Roache

    Scénografie: Paul Healy, Bill Ives, John Paino

    Kostýmy: Cynthia Ann Summers

    Popis :

    Dvacet let po zániku moderní civilizace je otrlý přeživší Joel najat, aby propašoval čtrnáctiletou Ellie z nebezpečné karanténní zóny. Oba se musí vydat na cestu napříč Spojenými státy a spoléhat jeden na druhého, aby přežili. (HBO Max)


    Formát                                   : Matroska
    Format version                           : Version 4
    Velikost souboru                         : 5,51 GiB
    Duration                                 : 52 min 46 s
    Celkový BitRate                          : 15,0 Mb/s
    Encoded date                             : UTC 2023-01-23 20:45:08
    Použitý software                         : mkvmerge v72.0.0 ('Minuano (Six-eight)') 64-bit
    Enkódoval                                : libebml v1.4.4 + libmatroska v1.7.1

    Video
    ID                                       : 1
    Formát                                   : HEVC
    Formát/Info                              : High Efficiency Video Coding
    Format profile                           : Main 10@L5@High
    Codec ID                                 : V_MPEGH/ISO/HEVC
    Duration                                 : 52 min 46 s
    Bit rate                                 : 13,7 Mb/s
    Šířka                                    : 3 840pixely
    Výška                                    : 2 160pixely
    Poměr stran                              : 16:9
    Frame rate mode                          : Constant
    Frame rate                               : 23,976 (24000/1001) FPS
    Color space                              : YUV
    Chroma subsampling                       : 4:2:0
    Bit depth                                : 10 bits
    Bits/(Pixel*Frame)                       : 0.069
    Stream size                              : 5,04 GiB (91%)
    Jazyk                                    : English
    Default                                  : Ano
    Forced                                   : Ne
    Color range                              : Limited
    Color primaries                          : BT.709
    Transfer characteristics                 : BT.709
    Matrix coefficients                      : BT.709

    Audio #1
    ID                                       : 2
    Formát                                   : E-AC-3 JOC
    Formát/Info                              : Enhanced AC-3 with Joint Object Coding
    Commercial name                          : Dolby Digital Plus with Dolby Atmos
    Codec ID                                 : A_EAC3
    Duration                                 : 52 min 46 s
    Bit rate mode                            : Constant
    Bit rate                                 : 768 kb/s
    Kanál(y)                                 : 6 kanály
    Channel layout                           : L R C LFE Ls Rs
    Sampling rate                            : 48,0 kHz
    Frame rate                               : 31,250 FPS (1536 SPF)
    Compression mode                         : Lossy
    Stream size                              : 290 MiB (5%)
    Titul                                    : English
    Jazyk                                    : English
    Service kind                             : Complete Main
    Default                                  : Ne
    Forced                                   : Ne
    Complexity index                         : 16
    Number of dynamic objects                : 15
    Bed channel count                        : 1 kanál
    Bed channel configuration                : LFE

    Audio #2
    ID                                       : 3
    Formát                                   : AC-3
    Formát/Info                              : Audio Coding 3
    Commercial name                          : Dolby Digital
    Codec ID                                 : A_AC3
    Duration                                 : 52 min 46 s
    Bit rate mode                            : Constant
    Bit rate                                 : 256 kb/s
    Kanál(y)                                 : 2 kanály
    Channel layout                           : L R
    Sampling rate                            : 48,0 kHz
    Frame rate                               : 31,250 FPS (1536 SPF)
    Compression mode                         : Lossy
    Stream size                              : 96,6 MiB (2%)
    Titul                                    : Czech
    Jazyk                                    : Czech
    Service kind                             : Complete Main
    Default                                  : Ano
    Forced                                   : Ne

    Audio #3
    ID                                       : 4
    Formát                                   : AC-3
    Formát/Info                              : Audio Coding 3
    Commercial name                          : Dolby Digital
    Codec ID                                 : A_AC3
    Duration                                 : 52 min 46 s
    Bit rate mode                            : Constant
    Bit rate                                 : 256 kb/s
    Kanál(y)                                 : 2 kanály
    Channel layout                           : L R
    Sampling rate                            : 48,0 kHz
    Frame rate                               : 31,250 FPS (1536 SPF)
    Compression mode                         : Lossy
    Stream size                              : 96,6 MiB (2%)
    Titul                                    : Slovak
    Jazyk                                    : Slovak
    Service kind                             : Complete Main
    Default                                  : Ne
    Forced                                   : Ne

    Text #1
    ID                                       : 5
    Formát                                   : UTF-8
    Codec ID                                 : S_TEXT/UTF8
    Codec ID/Info                            : UTF-8 Plain Text
    Duration                                 : 48 min 57 s
    Bit rate                                 : 27 b/s
    Frame rate                               : 0,116 FPS
    Count of elements                        : 342
    Stream size                              : 9,82 KiB (0%)
    Jazyk                                    : English (US)
    Default                                  : Ne
    Forced                                   : Ne

    Text #2
    ID                                       : 6
    Formát                                   : UTF-8
    Codec ID                                 : S_TEXT/UTF8
    Codec ID/Info                            : UTF-8 Plain Text
    Duration                                 : 52 min 6 s
    Bit rate                                 : 33 b/s
    Frame rate                               : 0,165 FPS
    Count of elements                        : 516
    Stream size                              : 12,7 KiB (0%)
    Titul                                    : SDH
    Jazyk                                    : English (US)
    Default                                  : Ne
    Forced                                   : Ne

    Text #3
    ID                                       : 7
    Formát                                   : UTF-8
    Codec ID                                 : S_TEXT/UTF8
    Codec ID/Info                            : UTF-8 Plain Text
    Duration                                 : 7 min 55 s
    Bit rate                                 : 26 b/s
    Frame rate                               : 0,122 FPS
    Count of elements                        : 58
    Stream size                              : 1,52 KiB (0%)
    Titul                                    : Forced
    Jazyk                                    : Czech (CZ)
    Default                                  : Ano
    Forced                                   : Ano

    Text #4
    ID                                       : 8
    Formát                                   : UTF-8
    Codec ID                                 : S_TEXT/UTF8
    Codec ID/Info                            : UTF-8 Plain Text
    Duration                                 : 7 min 55 s
    Bit rate                                 : 27 b/s
    Frame rate                               : 0,122 FPS
    Count of elements                        : 58
    Stream size                              : 1,62 KiB (0%)
    Titul                                    : Forced
    Jazyk                                    : Slovak (SK)
    Default                                  : Ne
    Forced                                   : Ne

    Text #5
    ID                                       : 9
    Formát                                   : UTF-8
    Codec ID                                 : S_TEXT/UTF8
    Codec ID/Info                            : UTF-8 Plain Text
    Duration                                 : 52 min 20 s
    Bit rate                                 : 26 b/s
    Frame rate                               : 0,133 FPS
    Count of elements                        : 418
    Stream size                              : 10,1 KiB (0%)
    Titul                                    : Full
    Jazyk                                    : Czech (CZ)
    Default                                  : Ne
    Forced                                   : Ne

    Text #6
    ID                                       : 10
    Formát                                   : UTF-8
    Codec ID                                 : S_TEXT/UTF8
    Codec ID/Info                            : UTF-8 Plain Text
    Duration                                 : 52 min 20 s
    Bit rate                                 : 26 b/s
    Frame rate                               : 0,133 FPS
    Count of elements                        : 417
    Stream size                              : 10,3 KiB (0%)
    Titul                                    : Full
    Jazyk                                    : Slovak (SK)
    Default                                  : Ne
    Forced                                   : Ne

    Menu
    00:00:00.000                             : en:Chapter 1
    00:09:08.157                             : en:Intro
    00:10:12.806                             : en:Chapter 2
    00:51:40.025                             : en:Credits














    OiSuzy, Tigervzoo2015, MITCHCZECH, pepa1441, Kamzik911, peter1988PP, Talienn,

    + Pridaj vlastnu verziu tohto torrentu +


    Upozornenie:
    Ziadny zo zobrazených súborov sa nenachádza na tomto serveri. Server slúzi len k síreniu vlastnorucne vytvorených aplikácií, videí, hudby ai. Autori stránok nenesú ziadnu zodpovednost za zverejnené odkazy, komentáre a obsah súborov. Vsetky komentáre, odkazy, súbory ktoré by svojou povahou mohli byt v rozpore zo zákonmi sem vkladáte na vlastnú zodpovednost. Autori stránok si vyhradzujú právo cenzúry odkazov, komentárov príp. súborov, ktoré by svojou povahou mohli byt v rozpore zo zákonmi a dobrými mravmi. Dodrzujte pravidlá!





    0
    Talienn
    Ratio 2.82

    Member+

    02/02/2023 18.51.07
    Mohu poprosit o upload?

    0
    zessick
    Ratio 7.46

    VIP

    24/01/2023 16.12.09
    PROSÍME o menší verzi 720p DĚKUJEME


    Back

    Na serveru se nenalézají zádne soubory. Za odkazy jsou výhradně zodpovědní uzivatelé a návstěvníci tohoto trackeru. Administrátor není zodpovědný za pridaný obsah ani za skody zpusobené uzivateli. Nesmíte pouzívat tuto webovou stránku pro distribuovaní nebo download zádného materiálu pokud nemáte povolení od príslusného vlastníka práv. Uzivatelé jsou zodpovědní za dodrzování těchto pravidel a podmínek. Owner má právo kdykoliv změnit pravidla tohoto trackeru.

    [ Script trval: 0.090 sec. ] - [ GZIP: enabled ]
    Je zhruba 11:04
    memcache

    TOPlist